Tall Girl (2019) WEBRip 2160p HDR

Torrent Details


Tall Girl <span style=color:#777>(2019)</span> WEBRip 2160p HDR

NAME
Tall Girl (2019) WEBRip 2160p HDR.torrent
CATEGORY
Movies
INFOHASH
55bb202894ce9ecaa779e7fc41f43e1d94ee745f
SIZE
13.6 GB in 1 file
ADDED
Uploaded on 06-01-2022 by our crawler pet called "Spidey".
SWARM
0 seeders & 0 peers
RATING
No votes yet.

Please login to vote for this torrent.


Description

Информация о фильме

Название: Дылда

Оригинальное название: Tall Girl

Год выхода: 2019

Жанр: драма, мелодрама, комедия, семейный





Режиссер: Зинга Стюарт





В ролях: Ава Мишель, Сабрина Карпентер, Анджела Кинси, Пэрис Берелс, Люк Эйснер, Стив Зан, Гриффин Глюк, Кэнди Брукс, Эми Ле, Conway Solomon





О фильме:

Джоди, самая высокая девушка в школе, всегда чувствовала себя неловко в собственной шкуре. Но после многих лет насмешек и избегания внимания она, наконец, решает обрести уверенность в себе.











Страна: США

Студия: Wonderland Sound and Vision

Продолжительность: 01:42:51

Перевод: Профессиональный (полное дублирование) | Пифагор по заказу Netflix







Файл

Кодек: H.265

Качество: WEBRip 2160p

Видео: MPEG-H HEVC HDR Video, 3840x1636 (2,35:1), 23.976 fps, 16.6 Mb/s, 10 bit

Аудио 1: E-AC3, 48.0 kHz, 6 ch, 640 kb/s | RUS [DUB, Netflix]

Аудио 2: AC3, 48.0 kHz, 6 ch, 640 kb/s | RUS [DUB, Netflix]

Аудио 3: E-AC3, 48.0 kHz, 6 ch, 640 kb/s | UKR [DUB, Netflix]

Аудио 4: E-AC3, 48.0 kHz, 6 ch, 640 kb/s | ENG [Оригинал]

Субтитры: Русские (Forced, full), украинские (Forced), английские (Forced, SDH)





Трейлер





MIОбщее

Уникальный идентификатор : 225620258541234581726464789787306614364 (0xA9BCE196397EE541A6AE28B0405BDE5C)

Полное имя : Tall.Girl.(2019).WEBRip.2160p.HDR.mkv

Формат : Matroska

Версия формата : Version 4 / Version 2

Размер файла : 13,6 Гбайт

Продолжительность : 1 ч. 42 м.

Общий поток : 18,9 Мбит/сек

Дата кодирования : UTC 2021-12-12 12:27:08

Программа кодирования : mkvmerge v8.3.0 ('Over the Horizon') 64bit

Библиотека кодирования : libebml v1.3.1 + libmatroska v1.4.2



Видео

Идентификатор : 1

Формат : HEVC

Формат/Информация : High Efficiency Video Coding

Профиль формата : Main 10@L5.1@High

HDR format : SMPTE ST 2086, HDR10 compatible

Идентификатор кодека : V_MPEGH/ISO/HEVC

Продолжительность : 1 ч. 41 м.

Битрейт : 16,6 Мбит/сек

Ширина : 3 840 пикселей

Высота : 1 636 пикселей

Соотношение сторон : 2,35:1

Режим частоты кадров : Постоянный

Частота кадров : 23,976 (24000/1001) кадра/сек

Цветовое пространство : YUV

Субдискретизация насыщенности : 4:2:0

Битовая глубина : 10 бит

Бит/(Пиксели*Кадры) : 0.110

Размер потока : 11,7 Гбайт (86%)

Библиотека кодирования : x265 3.2+9-971180b100f8:[Windows][MSVC 1923][64 bit] 10bit

Настройки программы : cpuid=1111039 / frame-threads=4 / numa-pools=28,0 / wpp / no-pmode / no-pme / no-psnr / no-ssim / log-level=2 / input-csp=1 / input-res=3840x1636 / interlace=0 / total-frames=0 / level-idc=51 / high-tier=1 / uhd-bd=0 / ref=5 / no-allow-non-conformance / repeat-headers / annexb / no-aud / no-hrd / info / hash=0 / no-temporal-layers / open-gop / min-keyint=23 / keyint=250 / gop-lookahead=0 / bframes=8 / b-adapt=2 / b-pyramid / bframe-bias=0 / rc-lookahead=40 / lookahead-slices=0 / scenecut=40 / radl=0 / no-splice / no-intra-refresh / ctu=64 / min-cu-size=8 / no-rect / no-amp / max-tu-size=32 / tu-inter-depth=3 / tu-intra-depth=3 / limit-tu=0 / rdoq-level=1 / dynamic-rd=0.00 / no-ssim-rd / signhide / no-tskip / nr-intra=0 / nr-inter=0 / no-constrained-intra / strong-intra-smoothing / max-merge=5 / limit-refs=0 / no-limit-modes / me=3 / subme=4 / merange=57 / temporal-mvp / no-frame-dup / no-hme / weightp / weightb / no-analyze-src-pics / deblock=0:0 / no-sao / no-sao-non-deblock / rd=6 / selective-sao=0 / no-early-skip / rskip / no-fast-intra / no-tskip-fast / no-cu-lossless / b-intra / no-splitrd-skip / rdpenalty=0 / psy-rd=4.00 / psy-rdoq=8.00 / no-rd-refine / no-lossless / cbqpoffs=0 / crqpoffs=0 / rc=crf / crf=15.0 / qcomp=0.60 / qpstep=4 / stats-write=0 / stats-read=0 / vbv-maxrate=160000 / vbv-bufsize=160000 / vbv-init=0.9 / crf-max=0.0 / crf-min=0.0 / ipratio=1.40 / pbratio=1.30 / aq-mode=2 / aq-strength=1.00 / cutree / zone-count=0 / no-strict-cbr / qg-size=32 / no-rc-grain / qpmax=69 / qpmin=0 / no-const-vbv / sar=0 / overscan=0 / videoformat=5 / range=0 / colorprim=9 / transfer=16 / colormatrix=9 / chromaloc=0 / display-window=0 / master-display=G(13250,34500)B(7500,3000)R(34000,16000)WP(15635,16450)L(10000000,1) / cll=10000,756 / min-luma=0 / max-luma=1023 / log2-max-poc-lsb=8 / vui-timing-info / vui-hrd-info / slices=1 / no-opt-qp-pps / no-opt-ref-list-length-pps / no-multi-pass-opt-rps / scenecut-bias=0.05 / no-opt-cu-delta-qp / no-aq-motion / hdr / hdr-opt / no-dhdr10-opt / no-idr-recovery-sei / analysis-reuse-level=5 / scale-factor=0 / refine-intra=0 / refine-inter=0 / refine-mv=1 / refine-ctu-distortion=0 / no-limit-sao / ctu-info=0 / no-lowpass-dct / refine-analysis-type=0 / copy-pic=1 / max-ausize-factor=1.0 / no-dynamic-refine / no-single-sei / no-hevc-aq / no-svt / no-field / qp-adaptation-range=1.00

Default : Да

Forced : Нет

Цветовой диапазон : Limited

Основные цвета : BT.2020

Характеристики трансфера : PQ

Коэффициенты матрицы : BT.2020 non-constant

Mastering display color primaries : Display P3

Mastering display luminance : min: 0.0001 cd/m2, max: 1000 cd/m2

Maximum Content Light Level : 10000 cd/m2

Maximum Frame-Average Light Level : 756 cd/m2



Аудио #1

Идентификатор : 2

Формат : E-AC-3

Формат/Информация : Enhanced AC-3

Коммерческое название : Dolby Digital Plus

Идентификатор кодека : A_EAC3

Продолжительность : 1 ч. 42 м.

Вид битрейта : Постоянный

Битрейт : 640 Кбит/сек

Каналы : 6 каналов

Channel layout : L R C LFE Ls Rs

Частота : 48,0 КГц

Частота кадров : 31,250 кадров/сек (1536 SPF)

Метод сжатия : С потерями

Размер потока : 470 Мбайт (3%)

Заголовок : DUB (Netflix)

Язык : Russian

Service kind : Complete Main

Default : Да

Forced : Нет



Аудио #2

Идентификатор : 3

Формат : AC-3

Формат/Информация : Audio Coding 3

Коммерческое название : Dolby Digital

Идентификатор кодека : A_AC3

Продолжительность : 1 ч. 42 м.

Вид битрейта : Постоянный

Битрейт : 640 Кбит/сек

Каналы : 6 каналов

Channel layout : L R C LFE Ls Rs

Частота : 48,0 КГц

Частота кадров : 31,250 кадров/сек (1536 SPF)

Метод сжатия : С потерями

Размер потока : 470 Мбайт (3%)

Заголовок : DUB (Netflix)

Язык : Russian

Service kind : Complete Main

Default : Нет

Forced : Нет



Аудио #3

Идентификатор : 4

Формат : E-AC-3

Формат/Информация : Enhanced AC-3

Коммерческое название : Dolby Digital Plus

Идентификатор кодека : A_EAC3

Продолжительность : 1 ч. 42 м.

Вид битрейта : Постоянный

Битрейт : 640 Кбит/сек

Каналы : 6 каналов

Channel layout : L R C LFE Ls Rs

Частота : 48,0 КГц

Частота кадров : 31,250 кадров/сек (1536 SPF)

Метод сжатия : С потерями

Размер потока : 471 Мбайт (3%)

Заголовок : DUB (Netflix)

Язык : Ukrainian

Service kind : Complete Main

Default : Нет

Forced : Нет



Аудио #4

Идентификатор : 5

Формат : E-AC-3

Формат/Информация : Enhanced AC-3

Коммерческое название : Dolby Digital Plus

Идентификатор кодека : A_EAC3

Продолжительность : 1 ч. 42 м.

Вид битрейта : Постоянный

Битрейт : 640 Кбит/сек

Каналы : 6 каналов

Channel layout : L R C LFE Ls Rs

Частота : 48,0 КГц

Частота кадров : 31,250 кадров/сек (1536 SPF)

Метод сжатия : С потерями

Размер потока : 470 Мбайт (3%)

Заголовок : Original

Язык : English

Service kind : Complete Main

Default : Нет

Forced : Нет



Текст #1

Идентификатор : 6

Формат : UTF-8

Идентификатор кодека : S_TEXT/UTF8

Идентификатор кодека/Информация : UTF-8 Plain Text

Продолжительность : 1 ч. 23 м.

Битрейт : 2 бит/сек

Count of elements : 31

Размер потока : 1,48 Кбайт (0%)

Заголовок : Forced

Язык : Russian

Default : Да

Forced : Нет



Текст #2

Идентификатор : 7

Формат : UTF-8

Идентификатор кодека : S_TEXT/UTF8

Идентификатор кодека/Информация : UTF-8 Plain Text

Продолжительность : 1 ч. 40 м.

Битрейт : 100 бит/сек

Count of elements : 1494

Размер потока : 74,2 Кбайт (0%)

Заголовок : Full

Язык : Russian

Default : Нет

Forced : Нет



Текст #3

Идентификатор : 8

Формат : UTF-8

Идентификатор кодека : S_TEXT/UTF8

Идентификатор кодека/Информация : UTF-8 Plain Text

Продолжительность : 1 ч. 23 м.

Битрейт : 1 бит/сек

Count of elements : 23

Размер потока : 893 байт (0%)

Заголовок : Forced

Язык : Ukrainian

Default : Нет

Forced : Нет



Текст #4

Идентификатор : 9

Формат : UTF-8

Идентификатор кодека : S_TEXT/UTF8

Идентификатор кодека/Информация : UTF-8 Plain Text

Продолжительность : 47 м. 49 с.

Битрейт : 0 бит/сек

Count of elements : 11

Размер потока : 209 байт (0%)

Заголовок : Forced

Язык : English

Default : Нет

Forced : Нет



Текст #5

Идентификатор : 10

Формат : UTF-8

Идентификатор кодека : S_TEXT/UTF8

Идентификатор кодека/Информация : UTF-8 Plain Text

Продолжительность : 1 ч. 40 м.

Битрейт : 88 бит/сек

Count of elements : 1846

Размер потока : 65,1 Кбайт (0%)

Заголовок : SDH

Язык : English

Default : Нет

Forced : НетСкриншоты

Discussion

Comments 0

Post Your Comment

Files in this torrent

FILENAMESIZE
Tall.Girl.(2019).WEBRip.2160p.HDR.mkv13.6 GB

Alternative Torrents for 'Tall Girl HDR'.

There are no alternative torrents found.