Arcane S01 1080p NF WEB-DL DDP5.1 H 264-EniaHD

Torrent Details


Arcane S01 1080p NF WEB-DL DDP5.1 H 264<span style=color:#fc9c6d>-EniaHD</span>

NAME
Arcane S01 1080p NF WEB-DL DDP5.1 H 264-EniaHD.torrent
CATEGORY
Anime
INFOHASH
25fc7025503c61e0bc5f982e29f7c8097ac8bf86
SIZE
12 GB in 9 files
ADDED
Uploaded on 06-01-2022 by our crawler pet called "Spidey".
SWARM
1127 seeders & 231 peers
RATING
No votes yet.

Please login to vote for this torrent.


Description

Аркейн / Arcane: League of Legends



Страна: США Франция

Производство: Riot Games, Fortiche Production

Год выпуска: 2021

Жанр: мультфильм, фантастика, фэнтези, боевик, драма

Продолжительность: ~00:40:00 серия



Перевод: Профессиональный (дублированный) | Iyuno-SDI Group (ранее SDI Media Russia)



Режиссёр: Паскаль Шаррю, Арно Делорд

Роли озвучивали: Хейли Стайнфелд, Элла Пернелл, Миа Синклер Дженнесс, Кевин Алехандро, Кэти Льюнг, Молли Харрис, Джейсон Спайсэк, Токс Олагундойе, Джейби Бланк, Гарри Ллойд, Реми Хай, Эбигейл Марлоу, Мик Уингерт, Юрий Ловенталь, Роджер Крэйг Смит, Джошуа Китон, Фред Таташиор, Шохре Агдашлу, Майлз Браун, Бретт Такер, Амира Вэнн, Мара Жюно, Дэйв Митчелл



Описание: Мультсериал по вселенной игры League of Legends, созданный к десятилетию игры. История разворачивается в утопическом краю Пилтовер и жестоком подземном мире Заун и рассказывает о становлении двух легендарных чемпионов Лиги и о той силе, что разведёт их по разные стороны баррикад.







Качество: WEB-DL 1080p

Контейнер: MKV

Видео: AVC, 1920x1080 (16:9), 24 fps, ~2580-4233 kbps

Аудио №1: E-AC3, 48 kHz, 6 ch, 640 kbps

Аудио №2: E-AC3, 48 kHz, 6 ch, 640 kbps

Субтитры: Русские (Forced, Full), немецкие, английские (SDH), испанские, французские, иврит, итальянские, португальские, румынские, украинскиеСписок серий01. Добро пожаловать в игру / Welcome to the Playground

02. Некоторые тайны лучше оставить в покое / Some Mysteries Are Better Left Unsolved

03. Без насилия не будет перемен / The Base Violence Necessary for Change

04. С Днём Прогресса! / Happy Progress Day!

05. Каждый хочет стать мне врагом / Everybody Wants to Be My Enemy

06. Когда эти стены рушатся / When These Walls Come Tumbling Down

07. Мальчик-спаситель / The Boy Savior

08. Масло и вода / Oil and Water

09. Чудовище, которое ты создал / The Monster You Created

MediaInfoGeneral

Unique ID : 300720328917053922340709200816015459434 (0xE23CA0EE34B4A0006A9125FFF314C46A)

Complete name : Arcane.S01E01.Welcome.to.the.Playground.1080p.NF.WEB-DL.DDP5.1.H.264-EniaHD.mkv

Format : Matroska

Format version : Version 4

File size : 1.17 GiB

Duration : 43 min 25 s

Overall bit rate mode : Variable

Overall bit rate : 3 861 kb/s

Movie name : Arcane S01E01 [Welcome to the Playground] - EniaHD

Writing application : mkvmerge v57.0.0 ('Till The End') 64-bit

Writing library : libebml v1.4.2 + libmatroska v1.6.4



Video

ID : 1

Format : AVC

Format/Info : Advanced Video Codec

Format profile : [email protected]

Format settings : CABAC / 4 Ref Frames

Format settings, CABAC : Yes

Format settings, Reference fra : 4 frames

Codec ID : V_MPEG4/ISO/AVC

Duration : 43 min 23 s

Bit rate mode : Variable

Bit rate : 2 580 kb/s

Maximum bit rate : 20.0 Mb/s

Width : 1 920 pixels

Height : 1 080 pixels

Display aspect ratio : 16:9

Frame rate mode : Constant

Frame rate : 24.000 FPS

Color space : YUV

Chroma subsampling : 4:2:0

Bit depth : 8 bits

Scan type : Progressive

Bits/(Pixel*Frame) : 0.052

Stream size : 801 MiB (67%)

Writing library : x264 core 148 r2724 dbe0335

Encoding settings : cabac=1 / ref=4 / deblock=1:0:0 / analyse=0x3:0x111 / me=umh / subme=10 / psy=1 / psy_rd=1.00:0.00 / mixed_ref=1 / me_range=120 / chroma_me=1 / trellis=2 / 8x8dct=1 / cqm=0 / deadzone=21,11 / fast_pskip=1 / chroma_qp_offset=-2 / threads=8 / lookahead_threads=2 / sliced_threads=0 / nr=0 / decimate=1 / interlaced=0 / bluray_compat=0 / stitchable=1 / constrained_intra=0 / bframes=16 / b_pyramid=2 / b_adapt=2 / b_bias=0 / direct=3 / weightb=1 / open_gop=0 / weightp=2 / keyint=240 / keyint_min=121 / scenecut=0 / intra_refresh=0 / rc_lookahead=240 / rc=crf / mbtree=1 / crf=19.0 / qcomp=0.50 / qpmin=6 / qpmax=51 / qpstep=4 / vbv_maxrate=20000 / vbv_bufsize=25000 / crf_max=0.0 / nal_hrd=vbr / filler=0 / ip_ratio=1.40 / aq=1:0.80

Default : Yes

Forced : No



Audio #1

ID : 2

Format : E-AC-3

Format/Info : Enhanced AC-3

Commercial name : Dolby Digital Plus

Codec ID : A_EAC3

Duration : 43 min 25 s

Bit rate mode : Constant

Bit rate : 640 kb/s

Channel(s) : 6 channels

Channel layout : L R C LFE Ls Rs

Sampling rate : 48.0 kHz

Frame rate : 31.250 FPS (1536 SPF)

Bit depth : 32 bits

Compression mode : Lossy

Stream size : 199 MiB (17%)

Language : Russian

Service kind : Complete Main

Default : Yes

Forced : No



Audio #2

ID : 3

Format : E-AC-3

Format/Info : Enhanced AC-3

Commercial name : Dolby Digital Plus

Codec ID : A_EAC3

Duration : 43 min 25 s

Bit rate mode : Constant

Bit rate : 640 kb/s

Channel(s) : 6 channels

Channel layout : L R C LFE Ls Rs

Sampling rate : 48.0 kHz

Frame rate : 31.250 FPS (1536 SPF)

Bit depth : 32 bits

Compression mode : Lossy

Stream size : 199 MiB (17%)

Language : English

Service kind : Complete Main

Default : No

Forced : No



Text #1

ID : 4

Format : UTF-8

Codec ID : S_TEXT/UTF8

Codec ID/Info : UTF-8 Plain Text

Duration : 41 min 32 s

Bit rate : 0 b/s

Count of elements : 4

Stream size : 144 Bytes (0%)

Title : Forced

Language : Russian

Default : Yes

Forced : No



Text #2

ID : 5

Format : UTF-8

Codec ID : S_TEXT/UTF8

Codec ID/Info : UTF-8 Plain Text

Duration : 41 min 32 s

Bit rate : 66 b/s

Count of elements : 364

Stream size : 20.1 KiB (0%)

Language : Russian

Default : No

Forced : No



Text #3

ID : 6

Format : UTF-8

Codec ID : S_TEXT/UTF8

Codec ID/Info : UTF-8 Plain Text

Duration : 41 min 30 s

Bit rate : 44 b/s

Count of elements : 359

Stream size : 13.6 KiB (0%)

Language : German

Default : No

Forced : No



Text #4

ID : 7

Format : UTF-8

Codec ID : S_TEXT/UTF8

Codec ID/Info : UTF-8 Plain Text

Duration : 41 min 22 s

Bit rate : 63 b/s

Count of elements : 686

Stream size : 19.3 KiB (0%)

Title : SDH

Language : English

Default : No

Forced : No



Text #5

ID : 8

Format : UTF-8

Codec ID : S_TEXT/UTF8

Codec ID/Info : UTF-8 Plain Text

Duration : 41 min 30 s

Bit rate : 40 b/s

Count of elements : 363

Stream size : 12.3 KiB (0%)

Title : European

Language : Spanish

Default : No

Forced : No



Text #6

ID : 9

Format : UTF-8

Codec ID : S_TEXT/UTF8

Codec ID/Info : UTF-8 Plain Text

Duration : 41 min 32 s

Bit rate : 44 b/s

Count of elements : 362

Stream size : 13.5 KiB (0%)

Language : French

Default : No

Forced : No



Text #7

ID : 10

Format : UTF-8

Codec ID : S_TEXT/UTF8

Codec ID/Info : UTF-8 Plain Text

Duration : 41 min 30 s

Bit rate : 60 b/s

Count of elements : 364

Stream size : 18.4 KiB (0%)

Language : Hebrew

Default : No

Forced : No



Text #8

ID : 11

Format : UTF-8

Codec ID : S_TEXT/UTF8

Codec ID/Info : UTF-8 Plain Text

Duration : 41 min 30 s

Bit rate : 40 b/s

Count of elements : 363

Stream size : 12.3 KiB (0%)

Language : Italian

Default : No

Forced : No



Text #9

ID : 12

Format : UTF-8

Codec ID : S_TEXT/UTF8

Codec ID/Info : UTF-8 Plain Text

Duration : 41 min 30 s

Bit rate : 41 b/s

Count of elements : 364

Stream size : 12.7 KiB (0%)

Title : Brazilian

Language : Portuguese

Default : No

Forced : No



Text #10

ID : 13

Format : UTF-8

Codec ID : S_TEXT/UTF8

Codec ID/Info : UTF-8 Plain Text

Duration : 41 min 30 s

Bit rate : 46 b/s

Count of elements : 364

Stream size : 14.1 KiB (0%)

Language : Romanian

Default : No

Forced : No



Text #11

ID : 14

Format : UTF-8

Codec ID : S_TEXT/UTF8

Codec ID/Info : UTF-8 Plain Text

Duration : 41 min 30 s

Bit rate : 62 b/s

Count of elements : 364

Stream size : 19.1 KiB (0%)

Language : Ukrainian

Default : No

Forced : NoСкриншоты

Релиз от:

Discussion

Comments 0

Post Your Comment

Files in this torrent

FILENAMESIZE
Arcane.S01E01.Welcome.to.the.Playground.1080p.NF.WEB-DL.DDP5.1.H.264-EniaHD.mkv1.2 GB
Arcane.S01E02.Some.Mysteries.Are.Better.Left.Unsolved.1080p.NF.WEB-DL.DDP5.1.H.264-EniaHD.mkv1.4 GB
Arcane.S01E03.The.Base.Violence.Necessary.for.Change.1080p.NF.WEB-DL.DDP5.1.H.264-EniaHD.mkv1.7 GB
Arcane.S01E04.Happy.Progress.Day.1080p.NF.WEB-DL.DDP5.1.H.264-EniaHD.mkv1 GB
Arcane.S01E05.Everybody.Wants.to.Be.My.Enemy.1080p.NF.WEB-DL.DDP5.1.H.264-EniaHD.mkv1.3 GB
Arcane.S01E06.When.These.Walls.Come.Tumbling.Down.1080p.NF.WEB-DL.DDP5.1.H.264-EniaHD.mkv2 GB
Arcane.S01E07.The.Boy.Savior.1080p.NF.WEB-DL.DDP5.1.H.264-EniaHD.mkv1.1 GB
Arcane.S01E08.Oil.and.Water.1080p.NF.WEB-DL.DDP5.1.H.264-EniaHD.mkv1.1 GB
Arcane.S01E09.The.Monster.You.Created.1080p.NF.WEB-DL.DDP5.1.H.264-EniaHD.mkv1.1 GB

Alternative Torrents for 'Arcane NF DDP'.

TORRENT NAMEADDEDSIZESEEDSPEERSHEALTH
11/26/20213.9 GB359
11/20/20216.6 GB10