Rumble 2021 AMZN DUB WEB-DLRip X264

Torrent Details


Rumble<span style=color:#777> 2021</span> AMZN DUB WEB-DLRip x264

NAME
Rumble 2021 AMZN DUB WEB-DLRip x264.torrent
CATEGORY
Anime
INFOHASH
a2a78b64d0d3f3d42c0e35e9d03595accb7d5659
SIZE
1.4 GB in 1 file
ADDED
Uploaded on 06-01-2022 by our crawler pet called "Spidey".
SWARM
4 seeders & 0 peers
RATING
No votes yet.

Please login to vote for this torrent.


Description

Информация о фильме

Название: Лига монстров

Оригинальное название: Rumble

Год выпуска: 2021

Жанр: Комедия, Фэнтези, Семейный, Приключения, Мультфильм

Режиссер: Хамиш Грив / Hamish Grieve

В ролях: Уилл Арнетт, Терри Крюс, Джеральдин Вишванатан, Джо Аноаи, Тони Данза, Бен Шварц, Джимми Татро, Ребекка Куинн, Фред Меламед, Бриджет Эверетт, Карлос Гомес, Майкл Баффер, Чарльз Баркли, Стефен А. Смит, Крис Юбэнк



О фильме:

В мире, где монстрический реслинг – обожаемый вид спорта, а монстры-спортсмены – настоящие звезды, девушка Винни мечтает пойти по стопам отца и начинает тренировать монстра-аутсайдера. Милашке-неудачнику предстоит пройти непростой путь под руководством юной, но суровой наставницы, чтобы стать чемпионом.







Выпущено: США, Австралия, Канада, Paramount Animation, Paramount Pictures, Reel FX Creative Studios, Walden Media, WWE Studios

Продолжительность: 01:34:53

Перевод: Профессиональный (полное дублирование) | IVI

Субтитры: Русские, англиские



Файл

Формат: Matroska

Качество: WEB-DLRip-AVC

Видео: 1024x426 at 24.000 fps, [email protected], ~1754 kbps

Аудио 1: AC3, 2 ch, ~192 kbps - | Русский |

Аудио 2: AC3, 2 ch, ~192 kbps - | Английский |

Формат субтитров: softsub (SRT)



***Релиз от: -=DoMiNo=-









M/IGeneral

Unique ID : 68904562256171247437487613345966848115 (0x33D68935AF25F68CB8280BCAC72BF873)

Complete name : I:Rumble.2021.AMZN.DUB.WEB-DLRip.x264.mkv

Format : Matroska

Format version : Version 4

File size : 1.41 GiB

Duration : 1 h 34 min

Overall bit rate : 2 129 kb/s

Encoded date : UTC 2022-01-05 15:33:56

Writing application : mkvmerge v64.0.0 ('Willows') 64-bit

Writing library : libebml v1.4.2 + libmatroska v1.6.4

Cover : Yes

Attachments : cover.jpg / cover 2.jpg



Video

ID : 1

Format : AVC

Format/Info : Advanced Video Codec

Format profile : [email protected]

Format settings : CABAC / 14 Ref Frames

Format settings, CABAC : Yes

Format settings, Reference : 14 frames

Codec ID : V_MPEG4/ISO/AVC

Duration : 1 h 34 min

Bit rate : 1 743 kb/s

Width : 1 024 pixels

Height : 426 pixels

Display aspect ratio : 2.40:1

Frame rate mode : Constant

Frame rate : 24.000 FPS

Color space : YUV

Chroma subsampling : 4:2:0

Bit depth : 8 bits

Scan type : Progressive

Bits/(Pixel*Frame) : 0.166

Stream size : 1.16 GiB (82%)

Title : -=DoMiNo=-

Writing library : x264 core 164 r3079 d9a19f0

Encoding settings : cabac=1 / ref=14 / deblock=1:-2:-2 / analyse=0x3:0x133 / me=umh / subme=10 / psy=1 / psy_rd=1.05:0.15 / mixed_ref=1 / me_range=32 / chroma_me=1 / trellis=2 / 8x8dct=1 / cqm=0 / deadzone=21,11 / fast_pskip=0 / chroma_qp_offset=-3 / threads=13 / lookahead_threads=3 / sliced_threads=0 / nr=0 / decimate=0 / interlaced=0 / bluray_compat=0 / constrained_intra=0 / bframes=10 / b_pyramid=2 / b_adapt=2 / b_bias=0 / direct=3 / weightb=1 / open_gop=0 / weightp=2 / keyint=250 / keyint_min=23 / scenecut=40 / intra_refresh=0 / rc_lookahead=60 / rc=2pass / mbtree=0 / bitrate=1743 / ratetol=1.0 / qcomp=0.70 / qpmin=0 / qpmax=69 / qpstep=4 / cplxblur=20.0 / qblur=0.5 / vbv_maxrate=50000 / vbv_bufsize=62500 / nal_hrd=none / filler=0 / ip_ratio=1.40 / pb_ratio=1.30 / aq=3:0.90

Language : English

Default : Yes

Forced : No

Color range : Limited

Color primaries : BT.709

Transfer characteristics : BT.709

Matrix coefficients : BT.709



Audio #1

ID : 2

Format : AC-3

Format/Info : Audio Coding 3

Commercial name : Dolby Digital

Codec ID : A_AC3

Duration : 1 h 34 min

Bit rate mode : Constant

Bit rate : 192 kb/s

Channel(s) : 2 channels

Channel layout : L R

Sampling rate : 48.0 kHz

Frame rate : 31.250 FPS (1536 SPF)

Compression mode : Lossy

Stream size : 130 MiB (9%)

Title : DUB

Language : Russian

Service kind : Complete Main

Default : Yes

Forced : No



Audio #2

ID : 3

Format : AC-3

Format/Info : Audio Coding 3

Commercial name : Dolby Digital

Codec ID : A_AC3

Duration : 1 h 34 min

Bit rate mode : Constant

Bit rate : 192 kb/s

Channel(s) : 2 channels

Channel layout : L R

Sampling rate : 48.0 kHz

Frame rate : 31.250 FPS (1536 SPF)

Compression mode : Lossy

Stream size : 130 MiB (9%)

Language : English

Service kind : Complete Main

Default : No

Forced : No



Text #1

ID : 4

Format : UTF-8

Codec ID : S_TEXT/UTF8

Codec ID/Info : UTF-8 Plain Text

Duration : 1 h 27 min

Bit rate : 112 b/s

Count of elements : 1433

Stream size : 72.3 KiB (0%)

Language : Russian

Default : No

Forced : No



Text #2

ID : 5

Format : UTF-8

Codec ID : S_TEXT/UTF8

Codec ID/Info : UTF-8 Plain Text

Duration : 1 h 31 min

Bit rate : 83 b/s

Count of elements : 1633

Stream size : 55.8 KiB (0%)

Language : English

Default : No

Forced : NoСкриншоты

Discussion

Comments 0

Post Your Comment

Files in this torrent

FILENAMESIZE
Rumble.2021.AMZN.DUB.WEB-DLRip.x264.mkv1.4 GB

Alternative Torrents for 'Rumble DUB DLRip'.

TORRENT NAMEADDEDSIZESEEDSPEERSHEALTH
1/6/20221.4 GB40
5/6/20222.8 GB31
2/5/20222 GB20
5/6/2022967 MB11
5/6/20221.5 GB11