Harlots Housewives And Heroines A 17th Century History For Girls S01E03 Act Three At Work And Play (720p HD)

Torrent Details

Harlots Housewives and Heroines A 17th Century History for Girls S01E03 Act Three At Work And Play (720p HD)

NAME
Harlots Housewives and Heroines A 17th Century History for Girls S01E03 Act Three At Work And Play (720p HD).torrent
CATEGORY
Television
INFOHASH
c70c1ebe8855b3f4b1c3935a50b3711611d1157c
SIZE
1004 MB in 5 files
ADDED
Uploaded on 02-06-2017 by our crawler pet called "Spidey".
SWARM
0 seeders & 0 peers
RATING
No votes yet.

Please login to vote for this torrent.


Description

Harlots Housewives and Heroines A 17th Century History for Girls S01E03 Act Three At Work And Play (720p HD, soft Eng subs)

Note - I have uploaded this episode before, but in 540p without subtitles; this is 720p plus subs

Lucy Worsley explores the lives of some of the most remarkable women of the age, including writers, actresses, travellers and scientists.

Against a backdrop of religious and political turmoil, the rise of print culture, the rapid growth of London, the burgeoning scientific revolution and the country's flourishing trading empire, she meets a host of female mavericks who took advantage of the extraordinary changes afoot to challenge the traditional male bastions of society.

Women like Nell Gwyn, the most famous of a new generation of actresses; Aphra Behn, the first professional female writer; and Christian Davies, who disguised herself as a man to fight as a soldier - all of them gained notoriety and celebrity, challenging the inequalities of the age. As Lucy discovers, these women's attitudes, ambitions and achievements were surprisingly modern.

(with soft subtitles)

First broadcast: 5 June 2012
Duration: 1 hour



Media info:-
Format : MPEG-4
Format profile : Base Media
Codec ID : isom (isom/iso2/avc1/mp41)
File size : 1 004 MiB
Duration : 59mn 6s
Overall bit rate mode : Variable
Overall bit rate : 2 374 Kbps
Writing application : Lavf57.71.100

Video
ID : 1
Format : AVC
Format/Info : Advanced Video Codec
Format profile : [email protected]/* */
Format settings, CABAC : Yes
Format settings, ReFrames : 2 frames
Codec ID : avc1
Codec ID/Info : Advanced Video Coding
Duration : 59mn 6s
Bit rate mode : Variable
Bit rate : 2 275 Kbps
Maximum bit rate : 3 500 Kbps
Width : 1 280 pixels
Height : 720 pixels
Display aspect ratio : 16:9
Frame rate mode : Constant
Frame rate : 25.000 fps
Color space : YUV
Chroma subsampling : 4:2:0
Bit depth : 8 bits
Scan type : Progressive
Bits/(Pixel*Frame) : 0.099
Stream size : 962 MiB (96%)

Audio
ID : 2
Format : AAC
Format/Info : Advanced Audio Codec
Format profile : LC
Codec ID : 40
Duration : 59mn 6s
Bit rate mode : Variable
Bit rate : 93.5 Kbps
Maximum bit rate : 96.4 Kbps
Channel(s) : 2 channels
Channel positions : Front: L R
Sampling rate : 48.0 KHz
Frame rate : 46.875 fps (1024 spf)
Compression mode : Lossy
Stream size : 39.5 MiB (4%)

Discussion

Comments 0

Post Your Comment

Files in this torrent

FILENAMESIZE
About this torrent.txt2.1 KB
Harlots Housewives and Heroines A 17th Century History for Girls S01E03 Act Three At Work And Play.jpg843.5 KB
Harlots Housewives and Heroines A 17th Century History for Girls S01E03 Act Three At Work And Play.mp41003.5 MB
Harlots Housewives and Heroines A 17th Century History for Girls S01E03 Act Three At Work And Play.srt87.4 KB
Torrent_downloaded_from_Demonoid_-_www.demonoid.pw_.txt59 B

Alternative Torrents for 'Harlots Housewives and Heroines Century History for Girls Act Three At Work And Play HD'.

TORRENT NAMEADDEDSIZESEEDSPEERSHEALTH
6/2/20171004 MB00