The Jack In The Box Awakening 2022 1080p BluRay REMUX MPEG-2 DTS-HD MA 5.1-FGT

Torrent Details


The Jack in the Box Awakening<span style=color:#777> 2022</span> 1080p BluRay REMUX MPEG-2 DTS-HD MA 5.1<span style=color:#fc9c6d>-FGT</span>

NAME
The Jack in the Box Awakening 2022 1080p BluRay REMUX MPEG-2 DTS-HD MA 5.1-FGT.torrent
CATEGORY
Movies
INFOHASH
1da33725d3e9423ed3a426c3b1e8f2416d001278
SIZE
13.8 GB in 2 files
ADDED
Uploaded on 18-01-2022 by our crawler pet called "Spidey".
SWARM
2 seeders & 0 peers
RATING
No votes yet.

Please login to vote for this torrent.


Description

帖子完整标题:玩偶盒惊魂2 The.Jack.in.the.Box.Awakening.2022.1080p.BluRay.REMUX.MPEG-2.DTS-HD.MA.5.1-FGT 13.80GB◎译  名 玩偶盒惊魂2◎片  名 The Jack in the Box: Awakening◎年  代 2021◎产  地 英国◎类  别 惊悚 / 恐怖◎语  言 英语◎IMDb链接 https://www.imdb.com/title/tt12764628/◎豆瓣链接 https://movie.douban.com/subject/35632610/◎演  员 Matt McClure Matt McClure (id:1002531)      尼科拉·赖特 Nicola Wright (id:1413374)VideoID : 1ID in the original source medium : 4113 (0x1011)Format : MPEG VideoFormat version : Version 2Format profile : [email protected]Format settings : CustomMatrix / BVOPFormat settings, BVOP : YesFormat settings, Matrix : CustomFormat settings, GOP : M=3, N=15Codec ID : V_MPEG2Codec ID/Info : MPEG 1 or 2 VideoDuration : 1 h 33 minBit rate mode : VariableBit rate : 17.8 Mb/sMaximum bit rate : 25.0 Mb/sWidth : 1 920 pixelsHeight : 1 080 pixelsDisplay aspect ratio : 16:9Frame rate mode : ConstantFrame rate : 24.000 FPSColor space : YUVChroma subsampling : 4:2:0Bit depth : 8 bitsScan type : ProgressiveCompression mode : LossyBits/(Pixel*Frame) : 0.358Time code of first frame : 00:00:00:00Time code source : Group of pictures headerGOP, Open/Closed : ClosedStream size : 11.6 GiB (84%)Language : EnglishDefault : NoForced : NoOriginal source medium : Blu-rayAudioID : 2ID in the original source medium : 4353 (0x1101)Format : DTS XLLFormat/Info : Digital Theater SystemsCommercial name : DTS-HD Master AudioCodec ID : A_DTSDuration : 1 h 33 minBit rate mode : VariableBit rate : 3 387 kb/sChannel(s) : 6 channelsChannel layout : C L R Ls Rs LFESampling rate : 48.0 kHzFrame rate : 93.750 FPS (512 SPF)Bit depth : 24 bitsCompression mode : LosslessStream size : 2.21 GiB (16%)Title : DTS-HD MA 5.1Language : EnglishDefault : YesForced : NoOriginal source medium : Blu-rayText #1ID : 3Format : UTF-8Codec ID : S_TEXT/UTF8Codec ID/Info : UTF-8 Plain TextDuration : 1 h 29 minBit rate : 25 b/sCount of elements : 643Stream size : 16.8 KiB (0%)Language : EnglishDefault : YesForced : NoText #2ID : 4Format : UTF-8Codec ID : S_TEXT/UTF8Codec ID/Info : UTF-8 Plain TextDuration : 1 h 32 minBit rate : 37 b/sCount of elements : 1044Stream size : 25.5 KiB (0%)Title : SDHLanguage : EnglishDefault : NoForced : NoMenu00:00:00.000 : de:Chapter 0100:08:58.833 : de:Chapter 0200:20:55.875 : de:Chapter 0300:21:47.750 : de:Chapter 0400:33:53.791 : de:Chapter 0500:45:17.625 : de:Chapter 0600:57:39.750 : de:Chapter 0701:09:26.125 : de:Chapter 0801:30:29.083 : de:Chapter 09

Discussion

Comments 0

Post Your Comment

Files in this torrent

FILENAMESIZE
RARBG.txt31 B
The.Jack.in.the.Box.Awakening.2022.1080p.BluRay.REMUX.MPEG-2.DTS-HD.MA.5.1-FGT.mkv13.8 GB

Alternative Torrents for 'Jack Box Awakening BluRay REMUX MPEG DTSHD MA'.

There are no alternative torrents found.