Hard Knocks S12E02 720p HDTV X264-GAMETiME

Torrent Details

Hard Knocks S12E02 720p HDTV x264-GAMETiME

NAME
Hard Knocks S12E02 720p HDTV x264-GAMETiME.torrent
CATEGORY
Television
INFOHASH
e1d80d18c32ad1000b1c1d18e76bc05be8ea986b
SIZE
1.4 GB in 2 files
ADDED
Uploaded on 19-08-2017 by our crawler pet called "Spidey".
SWARM
0 seeders & 0 peers
RATING
No votes yet.

Please login to vote for this torrent.


Description

Hard.Knocks.S12E02.720p.HDTV.x264-GAMETiME



Complete name : Hard.Knocks.S12E01.720p.HDTV.x264-GAMETiME.mkv
Format : Matroska
Format version : Version 4 / Version 2
File size : 1.35 GiB
Duration : 52 min 1 s
Overall bit rate : 3 716 kb/s
Encoded date : UTC 2017-08-19 08:20:41
Writing application : mkvmerge v14.0.0 ('Flow') 64bit
Writing library : libebml v1.3.4 + libmatroska v1.4.5

Video
ID : 1
Format : AVC
Format/Info : Advanced Video Codec
Format profile : [email protected]/* */
Format settings, CABAC : Yes
Format settings, ReFrames : 5 frames
Codec ID : V_MPEG4/ISO/AVC
Duration : 52 min 1 s
Bit rate : 3 329 kb/s
Width : 1 280 pixels
Height : 720 pixels
Display aspect ratio : 16:9
Frame rate mode : Constant
Frame rate : 50.000 FPS
Color space : YUV
Chroma subsampling : 4:2:0
Bit depth : 8 bits
Scan type : Progressive
Bits/(Pixel*Frame) : 0.072
Stream size : 1.21 GiB (90%)
Writing library : x264 core 152 r2851 ba24899
Encoding settings : cabac=1 / ref=5 / deblock=1:0:0 / analyse=0x3:0x113 / me=hex / subme=8 / psy=1 / psy_rd=1.00:0.00 / mixed_ref=1 / me_range=16 / chroma_me=1 / trellis=2 / 8x8dct=1 / cqm=0 / deadzone=21,11 / fast_pskip=1 / chroma_qp_offset=-2 / threads=12 / lookahead_threads=2 / sliced_threads=0 / nr=0 / decimate=1 / interlaced=0 / bluray_compat=0 / constrained_intra=0 / bframes=3 / b_pyramid=2 / b_adapt=1 / b_bias=0 / direct=3 / weightb=1 / open_gop=0 / weightp=2 / keyint=500 / keyint_min=50 / scenecut=40 / intra_refresh=0 / rc_lookahead=50 / rc=crf / mbtree=1 / crf=20.0 / qcomp=0.60 / qpmin=0 / qpmax=69 / qpstep=4 / vbv_maxrate=62500 / vbv_bufsize=78125 / crf_max=0.0 / nal_hrd=none / filler=0 / ip_ratio=1.40 / aq=1:1.00
Default : Yes
Forced : No
Color range : Limited
Color primaries : BT.709
Transfer characteristics : BT.709
Matrix coefficients : BT.709

Audio
ID : 2
Format : AC-3
Format/Info : Audio Coding 3
Format settings, Endianness : Big
Codec ID : A_AC3
Duration : 52 min 0 s
Bit rate mode : Constant
Bit rate : 384 kb/s
Channel(s) : 2 channels
Channel positions : Front: L R
Sampling rate : 48.0 kHz
Frame rate : 31.250 FPS (1536 spf)
Bit depth : 16 bits
Compression mode : Lossy
Delay relative to video : 309 ms
Stream size : 143 MiB (10%)
Language : English
Service kind : Complete Main
Default : Yes
Forced : No



Discussion

Comments 0

Post Your Comment

Files in this torrent

FILENAMESIZE
Hard.Knocks.S12E01.720p.HDTV.x264-GAMETiME.mkv1.4 GB
hard.knocks.s12e02.720p.hdtv.x264-gametime.nfo1.6 KB

Alternative Torrents for 'Hard Knocks GAMETiME'.

TORRENT NAMEADDEDSIZESEEDSPEERSHEALTH
3/17/20181.4 GB00
8/31/2017959 MB00
8/19/20171.4 GB00
8/11/20171.1 GB00