Plohie Parni 2022 WEB-DLRip

Torrent Details


Plohie parni<span style=color:#777> 2022</span> WEB-DLRip

NAME
Plohie parni 2022 WEB-DLRip.torrent
CATEGORY
Anime
INFOHASH
0d736402233a1db87855f2e5a73827ed48f3438b
SIZE
1.5 GB in 0 files
ADDED
Uploaded on 04-05-2022 by our crawler pet called "Spidey".
SWARM
328 seeders & 12 peers
RATING
No votes yet.

Please login to vote for this torrent.


Description

Плохие парни / The Bad Guys



Год выпуска: 2022

Выпущено: США / Universal Pictures, DreamWorks Animation

Жанр: мультфильм, комедия, криминал, приключения, семейный

Режиссер: Роджер Аллерс / Roger Allers

В ролях: Сэм Рокуэлл, Марк Мэрон, Аквафина, Крэйг Робинсон, Энтони Рамос, Ричард Айоади, Зази Битц, Алекс Борштейн, Лилли Сингх, Барбара Гудсон, Дина Морроне, Майкл Годер, Келли Куни Силелла, Уолт Дорн, Дэвид П. Смит



О фильме: Мир еще не видел столь искусных авантюристов: ловкий карманник Мистер Волк, опытный взломщик сейфов Мистер Змей, хладнокровный мастер маскировки Мистер Акула, вспыльчивый и мускулистый Мистер Пиранья, а также остроумная хакер высшего класса Мисс Тарантула. Однако даже самые умные преступники иногда допускают ошибки. Чтобы спастись от неминуемый тюрьмы, главарь банды Мистер Волк вынужден идти на крайние меры: «Плохие парни» должны измениться в лучшую сторону. Или сделать вид? Но когда новый злодей угрожает городу, сможет ли Мистер Волк убедить остальных действительно стать… хорошими ребятами?







Продолжительность: 01:40:07

Перевод: Профессиональный, многоголосый закадровый (Jaskier)



Качество: WEB-DLRip

Формат: AVI

Видео: XviD, 1637 Кбит/с, 720x304

Аудио: Русский (АС3, 6 ch, 448 Кбит/с)

Субтитры: Отсутствуют

Реклама: Отсутствует



Скриншоты



MediaInfoGeneral

Complete name : D:Plohie.parni.2022.WEB-DLRip.avi

Format : AVI

Format/Info : Audio Video Interleave

File size : 1.46 GiB

Duration : 1 h 40 min

Overall bit rate : 2 094 kb/s

Movie name : Плохие парни / The Bad Guys (2022) WEB-DLRip

Director : Пьер Перифел / Pierre Perifel

Genre : Мультфильм, комедия, крими

Writing application : VirtualDubMod 1.5.10.2 (build 2542/release)

Original source form/Name : Мультфильм

Copyright : США, DreamWorks Animation, Universal Pictures

Comment : Rip by vitolinform



Video

ID : 0

Format : MPEG-4 Visual

Format profile : Advanced [email protected]

Format settings : BVOP1 / Custom Matrix

Format settings, BVOP : 1

Format settings, QPel : No

Format settings, GMC : No warppoints

Format settings, Matrix : Custom

Codec ID : XVID

Codec ID/Hint : XviD

Duration : 1 h 40 min

Bit rate : 1 637 kb/s

Width : 720 pixels

Height : 304 pixels

Display aspect ratio : 2.35:1

Frame rate : 23.976 (24000/1001) FPS

Color space : YUV

Chroma subsampling : 4:2:0

Bit depth : 8 bits

Scan type : Progressive

Compression mode : Lossy

Bits/(Pixel*Frame) : 0.312

Stream size : 1.14 GiB (78%)

Writing library : XviD 69



Audio

ID : 1

Format : AC-3

Format/Info : Audio Coding 3

Commercial name : Dolby Digital

Codec ID : 2000

Duration : 1 h 40 min

Bit rate mode : Constant

Bit rate : 448 kb/s

Channel(s) : 6 channels

Channel layout : L R C LFE Ls Rs

Sampling rate : 48.0 kHz

Frame rate : 31.250 FPS (1536 SPF)

Compression mode : Lossy

Stream size : 321 MiB (21%)

Alignment : Split across interleaves

Interleave, duration : 42 ms (1.00 video frame)

Interleave, preload duration : 500 ms

Title : Russian (MVO, Jaskier // tnx.KinoPub)

Service kind : Complete Main

Discussion

Comments 0

Post Your Comment

Torrent Files (Unavailable)

Please check back later to get a list of all files included in this torrent.

Alternative Torrents for 'Plohie parni DLRip'.

TORRENT NAMEADDEDSIZESEEDSPEERSHEALTH
5/4/20221.5 GB32812