The Bad Guys 2022 AMZN WEB-DLRip X264 720p

Torrent Details


The Bad Guys<span style=color:#777> 2022</span> AMZN WEB-DLRip x264 720p

NAME
The Bad Guys 2022 AMZN WEB-DLRip x264 720p.torrent
CATEGORY
Anime
INFOHASH
bdd4962933f66ed3cf99cdbb1fffd8fe315c1fbf
SIZE
3.1 GB in 0 files
ADDED
Uploaded on 04-05-2022 by our crawler pet called "Spidey".
SWARM
891 seeders & 39 peers
RATING
No votes yet.

Please login to vote for this torrent.


Description

Информация о мультфильме

Название: Плохие парни

Оригинальное название: The Bad Guys

Год выпуска: 2022

Выпущено: США / Universal Pictures, DreamWorks Animation

Жанр: мультфильм, комедия, криминал, приключения, семейный

Режиссер: Роджер Аллерс / Roger Allers

В ролях: Сэм Рокуэлл, Марк Мэрон, Аквафина, Крэйг Робинсон, Энтони Рамос, Ричард Айоади, Зази Битц, Алекс Борштейн, Лилли Сингх, Барбара Гудсон, Дина Морроне, Майкл Годер, Келли Куни Силелла, Уолт Дорн, Дэвид П. Смит



О мультфильме:

Мир еще не видел столь искусных авантюристов: ловкий карманник Мистер Волк, опытный взломщик сейфов Мистер Змей, хладнокровный мастер маскировки Мистер Акула, вспыльчивый и мускулистый Мистер Пиранья, а также остроумная хакер высшего класса Мисс Тарантула. Однако даже самые умные преступники иногда допускают ошибки. Чтобы спастись от неминуемый тюрьмы, главарь банды Мистер Волк вынужден идти на крайние меры: «Плохие парни» должны измениться в лучшую сторону. Или сделать вид? Но когда новый злодей угрожает городу, сможет ли Мистер Волк убедить остальных действительно стать… хорошими ребятами?







Продолжительность: 01:40:07

Перевод: Профессиональный (многоголосый, закадровый) | Jaskier

Субтитры: Английские



Файл

Формат: Matroska

Качество: WEB-DLRip 720p | AMZN

Видео: 1272x530 at 23.976 fps, [email protected], ~3536 kbps

Аудио 1: AC3, 6 ch, ~448 kbps - | Русский |

Аудио 2: AC3, 6 ch, ~384 kbps - | Английский |

Формат субтитров: softsub (SRT)



***Релиз от: -=DoMiNo=-



M/Ix264 [info]: frame I:1215 Avg QP:18.37 size: 82901

x264 [info]: frame P:32938 Avg QP:19.66 size: 35532

x264 [info]: frame B:109877 Avg QP:20.81 size: 12595

x264 [info]: consecutive B-frames: 3.1% 2.3% 7.1% 26.4% 15.6% 37.5% 4.4% 2.0% 1.0% 0.4%



General

Unique ID : 180531296016809432465849639341567385032 (0x87D110198B70643A2448034DC8F61DC8)

Complete name : K:The.Bad.Guys.2022.AMZN.WEB-DLRip.x264.720p.mkv

Format : Matroska

Format version : Version 4

File size : 3.06 GiB

Duration : 1 h 40 min

Overall bit rate : 4 370 kb/s

Encoded date : UTC 2022-05-04 09:39:35

Writing application : mkvmerge v63.0.0 ('Everything') 64-bit

Writing library : libebml v1.4.2 + libmatroska v1.6.4

Cover : Yes

Attachments : cover.jpg / cover 2.jpg



Video

ID : 1

Format : AVC

Format/Info : Advanced Video Codec

Format profile : [email protected]

Format settings : CABAC / 12 Ref Frames

Format settings, CABAC : Yes

Format settings, Reference : 12 frames

Codec ID : V_MPEG4/ISO/AVC

Duration : 1 h 40 min

Bit rate : 3 536 kb/s

Width : 1 272 pixels

Height : 530 pixels

Display aspect ratio : 2.40:1

Frame rate mode : Constant

Frame rate : 23.976 (24000/1001) FPS

Color space : YUV

Chroma subsampling : 4:2:0

Bit depth : 8 bits

Scan type : Progressive

Bits/(Pixel*Frame) : 0.219

Stream size : 2.47 GiB (81%)

Title : -=DoMiNo=-

Writing library : x264 core 164 r3094 bfc87b7

Encoding settings : cabac=1 / ref=12 / deblock=1:-2:-2 / analyse=0x3:0x133 / me=umh / subme=9 / psy=1 / psy_rd=1.10:0.20 / mixed_ref=1 / me_range=32 / chroma_me=1 / trellis=2 / 8x8dct=1 / cqm=0 / deadzone=21,11 / fast_pskip=0 / chroma_qp_offset=-3 / threads=17 / lookahead_threads=2 / sliced_threads=0 / nr=0 / decimate=0 / interlaced=0 / bluray_compat=0 / constrained_intra=0 / bframes=9 / b_pyramid=2 / b_adapt=2 / b_bias=0 / direct=3 / weightb=1 / open_gop=0 / weightp=2 / keyint=250 / keyint_min=23 / scenecut=40 / intra_refresh=0 / rc_lookahead=60 / rc=crf / mbtree=0 / crf=20.5 / qcomp=0.70 / qpmin=0 / qpmax=69 / qpstep=4 / vbv_maxrate=50000 / vbv_bufsize=62500 / crf_max=0.0 / nal_hrd=none / filler=0 / ip_ratio=1.35 / pb_ratio=1.25 / aq=3:0.80

Language : English

Default : Yes

Forced : No

Color range : Limited

Color primaries : BT.709

Transfer characteristics : BT.709

Matrix coefficients : BT.709



Audio #1

ID : 2

Format : AC-3

Format/Info : Audio Coding 3

Commercial name : Dolby Digital

Codec ID : A_AC3

Duration : 1 h 40 min

Bit rate mode : Constant

Bit rate : 448 kb/s

Channel(s) : 6 channels

Channel layout : L R C LFE Ls Rs

Sampling rate : 48.0 kHz

Frame rate : 31.250 FPS (1536 SPF)

Compression mode : Lossy

Stream size : 321 MiB (10%)

Title : MVO_Jaskier

Language : Russian

Service kind : Complete Main

Default : Yes

Forced : No



Audio #2

ID : 3

Format : AC-3

Format/Info : Audio Coding 3

Commercial name : Dolby Digital

Codec ID : A_AC3

Duration : 1 h 40 min

Bit rate mode : Constant

Bit rate : 384 kb/s

Channel(s) : 6 channels

Channel layout : L R C LFE Ls Rs

Sampling rate : 48.0 kHz

Frame rate : 31.250 FPS (1536 SPF)

Compression mode : Lossy

Stream size : 275 MiB (9%)

Language : English

Service kind : Complete Main

Default : No

Forced : No



Text #1

ID : 4

Format : UTF-8

Codec ID : S_TEXT/UTF8

Codec ID/Info : UTF-8 Plain Text

Duration : 1 h 39 min

Bit rate : 87 b/s

Count of elements : 2288

Stream size : 64.4 KiB (0%)

Title : British SDH

Language : English

Default : No

Forced : No



Text #2

ID : 5

Format : UTF-8

Codec ID : S_TEXT/UTF8

Codec ID/Info : UTF-8 Plain Text

Duration : 1 h 32 min

Bit rate : 73 b/s

Count of elements : 1775

Stream size : 49.9 KiB (0%)

Title : British

Language : English

Default : No

Forced : No



Menu

00:00:00.000 : :Глава 01

00:07:30.000 : :Глава 02

00:15:00.000 : :Глава 03

00:22:30.000 : :Глава 04

00:30:00.000 : :Глава 05

00:37:30.000 : :Глава 06

00:45:00.000 : :Глава 07

00:52:30.000 : :Глава 08

01:00:00.000 : :Глава 09

01:07:30.000 : :Глава 10

01:15:00.000 : :Глава 11

01:22:30.000 : :Глава 12

01:30:00.000 : :Глава 13

01:37:30.000 : :Глава 14Скриншоты

Discussion

Comments 0

Post Your Comment

Torrent Files (Unavailable)

Please check back later to get a list of all files included in this torrent.

Alternative Torrents for 'Bad Guys DLRip'.

TORRENT NAMEADDEDSIZESEEDSPEERSHEALTH
5/4/20223.1 GB89139
5/4/2022746 MB331
11/15/20201.4 GB00