Varyag The Northman (2022) WEB-DLRip 720p

Torrent Details


Varyag  The Northman <span style=color:#777>(2022)</span> WEB-DLRip 720p

NAME
Varyag The Northman (2022) WEB-DLRip 720p.torrent
CATEGORY
Movies
INFOHASH
fbeea60a4425322e5e6e89d6d9f5adad203e903f
SIZE
4.8 GB in 0 files
ADDED
Uploaded on 13-05-2022 by our crawler pet called "Spidey".
SWARM
115 seeders & 8 peers
RATING
No votes yet.

Please login to vote for this torrent.


Description

Информация о фильме

Название: Варяг

Оригинальное название: The Northman

Год выхода: 2022

Жанр: Фэнтези, боевик, триллер, драма, приключения, история

Режиссер: Роберт Эггерс



В ролях: Александр Скарсгард, Николь Кидман, Клас Банг, Итэн Хоук, Аня Тейлор-Джой, Густав Линд, Эллиотт Роуз, Уиллем Дефо, Фил Мартин, Эльдар Скар и другие.



Слоган: «Завоюй свою судьбу»



О фильме: Принц Амлет мстит убийцам отца и хочет вернуть королевство, принадлежащее ему по праву.







Выпущено: США / Focus Features, Perfect World (Beijing) Pictures Co., Regency Television, Square Peg, Universal Pictures

Продолжительность: 02:17:18

Перевод: Профессиональный (многоголосый, закадровый) NewComers



Файл

Качество: WEB-DLRip 720p

Формат: MKV

Видео: MPEG-4 AVC/[email protected], 4000 Кбит/сек

Аудио #1: Русский: AC3, 6 ch, 384 Кбит/сек

Аудио #2: Английский: E-AC3, 6 ch, 640 Кбит/сек

Субтитры: русские (на надписи), русские (полные), украинские, английские [вшитые отключаемые]



MediaInfo: Общее

Уникальный идентификатор : 300974906076163333276643980280992539889 (0xE26DA88DB262C1D3833737EF43DAA4F1)

Полное имя : F:1.ФИЛЬМЫ1. ФИЛЬМЫВаряг The Northman (2022)Varyag The Northman (2022) WEB-DLRip 720p.mkv

Формат : Matroska

Версия формата : Version 4

Размер файла : 4,81 Гбайт

Продолжительность : 2 ч. 17 м.

Общий поток : 5 011 Кбит/сек

Дата кодирования : UTC 2022-05-13 12:37:55

Программа кодирования : mkvmerge v66.0.0 ('Josie') 64-bit

Библиотека кодирования : libebml v1.4.2 + libmatroska v1.6.4

Авторское право : *=Z=*

Attachments : poster.jpg

Язык : und



Видео

Идентификатор : 1

Формат : AVC

Формат/Информация : Advanced Video Codec

Профиль формата : [email protected]

Настройки формата : CABAC / 10 Ref Frames

Параметр CABAC формата : Да

Параметр RefFrames формата : 10 кадров

Идентификатор кодека : V_MPEG4/ISO/AVC

Продолжительность : 2 ч. 17 м.

Битрейт : 4 000 Кбит/сек

Ширина : 1 280 пикселей

Высота : 640 пикселей

Соотношение сторон : 2,000

Режим частоты кадров : Постоянный

Частота кадров : 23,976 (24000/1001) кадра/сек

Цветовое пространство : YUV

Субдискретизация насыщенности : 4:2:0

Битовая глубина : 8 бит

Тип развёртки : Прогрессивная

Бит/(Пиксели*Кадры) : 0.204

Размер потока : 3,82 Гбайт (80%)

Заголовок : USA / Focus Features, Perfect World (Beijing) Pictures Co., Regency Television, Square Peg, Universal Pictures

Библиотека кодирования : x264 core 159 r2991 1771b55

Настройки программы : cabac=1 / ref=10 / deblock=1:-3:-3 / analyse=0x3:0x133 / me=umh / subme=11 / psy=1 / psy_rd=1.00:0.00 / mixed_ref=1 / me_range=32 / chroma_me=1 / trellis=2 / 8x8dct=1 / cqm=0 / deadzone=21,18 / fast_pskip=0 / chroma_qp_offset=-2 / threads=19 / lookahead_threads=4 / sliced_threads=0 / nr=60 / decimate=0 / interlaced=0 / bluray_compat=0 / constrained_intra=0 / bframes=16 / b_pyramid=2 / b_adapt=2 / b_bias=10 / direct=3 / weightb=1 / open_gop=0 / weightp=2 / keyint=240 / keyint_min=24 / scenecut=40 / intra_refresh=0 / rc_lookahead=60 / rc=2pass / mbtree=0 / bitrate=4000 / ratetol=1.0 / qcomp=0.70 / qpmin=3 / qpmax=69 / qpstep=4 / cplxblur=20.0 / qblur=0.5 / vbv_maxrate=5000 / vbv_bufsize=4000 / nal_hrd=none / filler=0 / ip_ratio=1.40 / pb_ratio=1.30 / aq=1:0.60

Язык : English

Default : Да

Forced : Нет

Цветовой диапазон : Limited

Основные цвета : BT.709

Характеристики трансфера : BT.709

Коэффициенты матрицы : BT.709



Аудио #1

Идентификатор : 2

Формат : AC-3

Формат/Информация : Audio Coding 3

Коммерческое название : Dolby Digital

Идентификатор кодека : A_AC3

Продолжительность : 2 ч. 17 м.

Вид битрейта : Постоянный

Битрейт : 384 Кбит/сек

Каналы : 6 каналов

Channel layout : L R C LFE Ls Rs

Частота : 48,0 КГц

Частота кадров : 31,250 кадров/сек (1536 SPF)

Битовая глубина : 32 бит

Метод сжатия : С потерями

Размер потока : 377 Мбайт (8%)

Заголовок : MVO (NewComers)

Язык : Russian

Service kind : Complete Main

Default : Да

Forced : Нет



Аудио #2

Идентификатор : 3

Формат : E-AC-3

Формат/Информация : Enhanced AC-3

Коммерческое название : Dolby Digital Plus

Идентификатор кодека : A_EAC3

Продолжительность : 2 ч. 17 м.

Вид битрейта : Постоянный

Битрейт : 640 Кбит/сек

Каналы : 6 каналов

Channel layout : L R C LFE Ls Rs

Частота : 48,0 КГц

Частота кадров : 31,250 кадров/сек (1536 SPF)

Битовая глубина : 32 бит

Метод сжатия : С потерями

Размер потока : 629 Мбайт (13%)

Заголовок : Original (English)

Язык : English

Service kind : Complete Main

Default : Нет

Forced : Нет



Текст #1

Идентификатор : 4

Формат : UTF-8

Идентификатор кодека : S_TEXT/UTF8

Идентификатор кодека/Информация : UTF-8 Plain Text

Продолжительность : 2 ч. 7 м.

Битрейт : 77 бит/сек

Count of elements : 1628

Размер потока : 72,5 Кбайт (0%)

Язык : Russian

Default : Да

Forced : Нет



Текст #2

Идентификатор : 5

Формат : UTF-8

Идентификатор кодека : S_TEXT/UTF8

Идентификатор кодека/Информация : UTF-8 Plain Text

Продолжительность : 2 ч. 7 м.

Битрейт : 77 бит/сек

Count of elements : 1628

Размер потока : 72,7 Кбайт (0%)

Язык : Ukrainian

Default : Да

Forced : Нет



Текст #3

Идентификатор : 6

Формат : ASS

Идентификатор кодека : S_TEXT/ASS

Идентификатор кодека/Информация : Advanced Sub Station Alpha

Продолжительность : 2 ч. 0 м.

Битрейт : 0 бит/сек

Count of elements : 8

Метод сжатия : Без потерь

Размер потока : 356 байт (0%)

Язык : English

Default : Да

Forced : Нет

Скриншоты



ТРЕЙЛЕР

СЭМПЛ

Discussion

Comments 0

Post Your Comment

Torrent Files (Unavailable)

Please check back later to get a list of all files included in this torrent.

Alternative Torrents for 'Varyag Northman DLRip'.

TORRENT NAMEADDEDSIZESEEDSPEERSHEALTH
5/13/20224.8 GB1158