Corrective Measures 2022 WEB-DL 1080p SeleZen

Torrent Details


Corrective Measures<span style=color:#777> 2022</span> WEB-DL 1080p<span style=color:#fc9c6d> seleZen</span>

NAME
Corrective Measures 2022 WEB-DL 1080p seleZen.torrent
CATEGORY
Movies
INFOHASH
806e296c3d3fe2db9c80a27d035d910e0a008086
SIZE
5.1 GB in 0 files
ADDED
Uploaded on 13-05-2022 by our crawler pet called "Spidey".
SWARM
372 seeders & 56 peers
RATING
No votes yet.

Please login to vote for this torrent.


Description

Информация о фильме

Название: Тюрьма суперзлодеев / Корректирующие меры

Оригинальное название: Corrective Measures

Год выхода: 2022

Жанр: Фантастика, боевик, триллер

Режиссер: Шон Патрик О’Рейли

В ролях: Брюс Уиллис, Майкл Рукер, Томас Кавана, Бреннан Мейя, Кевин Зегерс, Дэн Пэйн, Celia Aloma, Хейли Сэйлс, Катрина Мёльман, Мэтт Андерсон







О фильме: Они — худшие из худших. Их девиз: с великой силой приходит великая безответственность. Они суперзлодеи, обладающие нечеловеческими сверхспособностями. И на свете есть лишь одно место, способное их сдержать. Именно здесь, в тюрьме будущего, пересекаются пути преступного гения-телепата, жестокого мстителя, коррумпированного надзирателя и многих других. Кто-то из них затеял опасную игру, и каждому — будь то заключенный или охранник — в ней отведена особая роль.



Страна: США

Студия: Arcana Productions, Arcana Studio, Exchange, The, Tubi TV

Продолжительность: 01:42:42

Перевод: Дублированный | Lucky Production



Качество: WEB-DL 1080p

Видео: MPEG-4 AVC, 1920x804, 6000 Kbit/s, 25.000 fps

Аудио #01: 48 kHz, AC3, 5.1, 448 Kbps | Дублированный | Lucky Production | RUS |

Аудио #02: 48 kHz, E-AC3, 5.1, 448 Kbps | Дублированный | Lucky Production | RUS |

Аудио #03: 48 kHz, AC3, 2.0, 192 Kbps | Оригинал | ENG |

Субтитры: Английские







MIGeneral

Unique ID : 313860219439564826497653684577281739318 (0xEC1F478D1E8EEAE70041F966756B8A36)

Complete name : D:Video1Corrective.Measures.2022.WEB-DL.1080p.seleZen.mkv

Format : Matroska

Format version : Version 4

File size : 5.06 GiB

Duration : 1 h 42 min

Overall bit rate : 7 055 kb/s

Movie name : Corrective Measures 2022 from seleZen

Encoded date : UTC 2022-05-13 17:09:31

Writing application : mkvmerge v59.0.0 ('Shining Star') 64-bit

Writing library : libebml v1.4.2 + libmatroska v1.6.4



Video

ID : 1

Format : AVC

Format/Info : Advanced Video Codec

Format profile : [email protected]

Format settings : CABAC / 5 Ref Frames

Format settings, CABAC : Yes

Format settings, Reference : 5 frames

Codec ID : V_MPEG4/ISO/AVC

Duration : 1 h 42 min

Bit rate : 6 000 kb/s

Width : 1 920 pixels

Height : 804 pixels

Display aspect ratio : 2.40:1

Frame rate mode : Constant

Frame rate : 25.000 FPS

Color space : YUV

Chroma subsampling : 4:2:0

Bit depth : 8 bits

Scan type : Progressive

Bits/(Pixel*Frame) : 0.155

Stream size : 4.28 GiB (85%)

Writing library : x264 core 157

Encoding settings : cabac=1 / ref=5 / deblock=1:0:0 / analyse=0x3:0x133 / me=umh / subme=10 / psy=1 / psy_rd=1.00:0.00 / mixed_ref=1 / me_range=24 / chroma_me=1 / trellis=2 / 8x8dct=1 / cqm=0 / deadzone=21,11 / fast_pskip=1 / chroma_qp_offset=-2 / threads=25 / lookahead_threads=4 / sliced_threads=0 / nr=0 / decimate=1 / interlaced=0 / bluray_compat=0 / constrained_intra=0 / bframes=8 / b_pyramid=2 / b_adapt=2 / b_bias=0 / direct=3 / weightb=1 / open_gop=0 / weightp=2 / keyint=250 / keyint_min=25 / scenecut=40 / intra_refresh=0 / rc_lookahead=60 / rc=2pass / mbtree=1 / bitrate=6000 / ratetol=1.0 / qcomp=0.60 / qpmin=0 / qpmax=69 / qpstep=4 / cplxblur=20.0 / qblur=0.5 / vbv_maxrate=6600 / vbv_bufsize=24000 / nal_hrd=none / filler=0 / ip_ratio=1.40 / aq=1:1.00

Language : English

Default : Yes

Forced : No



Audio #1

ID : 2

Format : AC-3

Format/Info : Audio Coding 3

Commercial name : Dolby Digital

Codec ID : A_AC3

Duration : 1 h 42 min

Bit rate mode : Constant

Bit rate : 448 kb/s

Channel(s) : 6 channels

Channel layout : L R C LFE Ls Rs

Sampling rate : 48.0 kHz

Frame rate : 31.250 FPS (1536 SPF)

Compression mode : Lossy

Stream size : 329 MiB (6%)

Language : Russian

Service kind : Complete Main

Default : Yes

Forced : Yes



Audio #2

ID : 3

Format : E-AC-3

Format/Info : Enhanced AC-3

Commercial name : Dolby Digital Plus

Codec ID : A_EAC3

Duration : 1 h 42 min

Bit rate mode : Constant

Bit rate : 448 kb/s

Channel(s) : 6 channels

Channel layout : L R C LFE Ls Rs

Sampling rate : 48.0 kHz

Frame rate : 31.250 FPS (1536 SPF)

Compression mode : Lossy

Stream size : 329 MiB (6%)

Language : Russian

Service kind : Complete Main

Default : No

Forced : No



Audio #3

ID : 4

Format : AC-3

Format/Info : Audio Coding 3

Commercial name : Dolby Digital

Codec ID : A_AC3

Duration : 1 h 42 min

Bit rate mode : Constant

Bit rate : 192 kb/s

Channel(s) : 2 channels

Channel layout : L R

Sampling rate : 48.0 kHz

Frame rate : 31.250 FPS (1536 SPF)

Compression mode : Lossy

Stream size : 141 MiB (3%)

Title : Original

Language : English

Service kind : Complete Main

Default : No

Forced : No



Text

ID : 5

Format : UTF-8

Codec ID : S_TEXT/UTF8

Codec ID/Info : UTF-8 Plain Text

Duration : 1 h 39 min

Bit rate : 74 b/s

Count of elements : 2036

Stream size : 53.9 KiB (0%)

Title : SDH

Language : English

Default : No

Forced : No



Релиз: Присоединяйся к: Кликай на баннеры.

Discussion

Comments 0

Post Your Comment

Torrent Files (Unavailable)

Please check back later to get a list of all files included in this torrent.

Alternative Torrents for 'Corrective Measures'.

TORRENT NAMEADDEDSIZESEEDSPEERSHEALTH
5/13/20225.1 GB37256
4/29/2022797 MB24713
4/29/20221.3 GB854
5/3/20221.4 GB704
5/10/20222.4 GB382
5/5/20221.3 GB345
4/30/20221.2 GB305
5/14/20221.8 GB272
4/30/20221.2 GB122
4/29/20221.3 GB112
4/29/20221.3 GB111
5/18/2022746 MB83
5/18/2022870 MB21
5/17/20221.1 GB11
5/1/20221.3 GB10