Clueless 1995 BluRay 1080p DTS X264-PRoDJi

Torrent Details

Clueless 1995 BluRay 1080p DTS x264-PRoDJi

NAME
Clueless 1995 BluRay 1080p DTS x264-PRoDJi.torrent
CATEGORY
Movies
INFOHASH
c807a91c6012e5b3a7584491223c46c6fcf4e421
SIZE
8 GB in 1 file
ADDED
Uploaded on 05-09-2017 by our crawler pet called "Spidey".
SWARM
0 seeders & 0 peers
RATING
No votes yet.

Please login to vote for this torrent.


Description

Clueless.1995.BluRay.1080p.DTS.x264-PRoDJi

ImDb: http://www.imdb.com/title/tt0112697



Complete name : Clueless.1995.BluRay.1080p.DTS.x264-PRoDJi.mkv
Format : Matroska
Format version : Version 4 / Version 2
File size : 8.03 GiB
Duration : 1 h 37 min
Overall bit rate : 11.8 Mb/s
Encoded date : UTC 2017-08-03 19:41:37
Writing application : mkvmerge v14.0.0 ('Flow') 64bit
Writing library : libebml v1.3.4 + libmatroska v1.4.5

Video
ID : 1
Format : AVC
Format/Info : Advanced Video Codec
Format profile : [email protected]
Format settings, CABAC : Yes
Format settings, ReFrames : 3 frames
Codec ID : V_MPEG4/ISO/AVC
Duration : 1 h 37 min
Bit rate : 10.3 Mb/s
Width : 1 920 pixels
Height : 1 080 pixels
Display aspect ratio : 16:9
Frame rate mode : Constant
Frame rate : 23.976 (24000/1001) FPS
Color space : YUV
Chroma subsampling : 4:2:0
Bit depth : 8 bits
Scan type : Progressive
Bits/(Pixel*Frame) : 0.207
Stream size : 7.00 GiB (87%)
Writing library : x264 core 152 r2851 ba24899
Encoding settings : cabac=1 / ref=4 / deblock=1:-1:-1 / analyse=0x3:0x113 / me=umh / subme=9 / psy=1 / psy_rd=1.00:0.00 / mixed_ref=1 / me_range=24 / chroma_me=1 / trellis=2 / 8x8dct=1 / cqm=2 / deadzone=21,11 / fast_pskip=1 / chroma_qp_offset=-5 / threads=12 / lookahead_threads=1 / sliced_threads=0 / nr=0 / decimate=0 / interlaced=0 / bluray_compat=0 / constrained_intra=0 / bframes=5 / b_pyramid=1 / b_adapt=2 / b_bias=2 / direct=3 / weightb=1 / open_gop=0 / weightp=2 / keyint=230 / keyint_min=22 / scenecut=40 / intra_refresh=0 / rc_lookahead=45 / rc=2pass / mbtree=1 / bitrate=10288 / ratetol=1.0 / qcomp=0.60 / qpmin=10 / qpmax=41 / qpstep=4 / cplxblur=20.0 / qblur=0.5 / ip_ratio=1.30 / aq=1:1.00
Language : English
Default : Yes
Forced : No

Audio
ID : 2
Format : DTS
Format/Info : Digital Theater Systems
Mode : 16
Format settings, Endianness : Big
Codec ID : A_DTS
Duration : 1 h 37 min
Bit rate mode : Constant
Bit rate : 1 509 kb/s
Channel(s) : 6 channels
Channel positions : Front: L C R, Side: L R, LFE
Sampling rate : 48.0 kHz
Frame rate : 93.750 FPS (512 spf)
Bit depth : 24 bits
Compression mode : Lossy
Stream size : 1.02 GiB (13%)
Title : 1509 Kbps 6 chnls DTS English
Language : English
Default : Yes
Forced : No

Text #1
ID : 3
Format : UTF-8
Codec ID : S_TEXT/UTF8
Codec ID/Info : UTF-8 Plain Text
Duration : 1 h 31 min
Bit rate : 77 b/s
Count of elements : 1342
Stream size : 51.7 KiB (0%)
Language : Turkish
Default : Yes
Forced : No

Text #2
ID : 4
Format : UTF-8
Codec ID : S_TEXT/UTF8
Codec ID/Info : UTF-8 Plain Text
Duration : 1 h 36 min
Bit rate : 81 b/s
Count of elements : 2138
Stream size : 57.6 KiB (0%)
Language : English
Default : No
Forced : No

Menu
00:00:00.000 : en:Way Normal Life
00:02:57.761 : en:As If
00:07:21.900 : en:Chuckleheads
00:10:05.313 : en:Power of Persuasion
00:20:36.527 : en:Adorably Clueless
00:26:16.825 : en:Makeover
00:31:26.259 : en:Rolling with the Homies
00:39:33.663 : en:Turn Away
00:44:59.822 : en:Calorie Fest
00:51:05.437 : en:Down Girl
01:01:01.992 : en:Cake Boy
01:11:08.139 : en:Majorly, Totally, Butt Crazy in Love
01:19:55.958 : en:Do-Gooder
01:26:43.448 : en:Puppy Love
01:32:38.386 : en:End Credits



Discussion

Comments 0

Post Your Comment

Files in this torrent

FILENAMESIZE
Clueless.1995.BluRay.1080p.DTS.x264-PRoDJi.mkv8 GB

Alternative Torrents for 'Clueless BluRay DTS PRoDJi'.

TORRENT NAMEADDEDSIZESEEDSPEERSHEALTH
9/5/20178 GB00