24 Season 2 Episode 20 Day 2 3 00 Am -4 00 A M H265 1080p WEBRip EzzRips

Torrent Details


24 Season 2 Episode 20 Day 2 3 00 am -4 00 a m H265 1080p WEBRip EzzRips

NAME
24 Season 2 Episode 20 Day 2 3 00 am -4 00 a m H265 1080p WEBRip EzzRips.torrent
CATEGORY
Television
INFOHASH
5bac16c8fa83c3d5eef119a9f84630bed1ea347f
SIZE
1.7 GB in 1 file
ADDED
Uploaded on 23-06-2022 by our crawler pet called "Spidey".
SWARM
0 seeders & 1 peers
RATING
No votes yet.

Please login to vote for this torrent.


Description

Episode Title: Day 2: 3:00 a.m.-4:00 a.m.

Season: 2

Episode: 20

Series: 24

Air Date: April 22nd, 2003

Age Rating: TV-14

Genre: Action, Crime, Drama

Summary: Jack tries to escape from the Kingsley's men after being tortured. Lynn Kresge tries to warn President Palmer about VP Prescott. Regional Director Ryan Chappelle returns to CTU and exerts his authority. Kate tries to retrieve the stolen computer chip. President Palmer begins to suspect something is wrong when Prescott won't return his phone calls.

IMDb Rating: 8.5/10 https://www.imdb.com/title/tt0502195/?ref_=fn_al_tt_1

Director: James Whitmore Jr.

Writers: Joel Surnow, Robert Cochran, Neil Cohen

Video Info:

Format                                   : MPEG-4

Format profile                           : Base Media / Version 2

Codec ID                                 : mp42 (mp42/iso2/mp41)

File size                                : 1.65 GiB

Duration                                 : 43 min 7 s

Overall bit rate                         : 5 481 kb/s

Encoded date                             : UTC 2022-06-11 16:21:39

Tagged date                              : UTC 2022-06-11 16:21:39

Writing application                      : HandBrake 1.5.1 2022011000



Video

ID                                       : 1

Format                                   : HEVC

Format/Info                              : High Efficiency Video Coding

Format profile                           : Main@L6.2@Main

Codec ID                                 : hvc1

Codec ID/Info                            : High Efficiency Video Coding

Duration                                 : 43 min 7 s

Source duration                          : 43 min 7 s

Bit rate                                 : 5 316 kb/s

Width                                    : 1 920 pixels

Height                                   : 1 080 pixels

Display aspect ratio                     : 16:9

Frame rate mode                          : Variable

Frame rate                               : 23.976 (24000/1001) FPS

Minimum frame rate                       : 23.974 FPS

Maximum frame rate                       : 23.981 FPS

Standard                                 : Component

Color space                              : YUV

Chroma subsampling                       : 4:2:0

Bit depth                                : 8 bits

Bits/(Pixel*Frame)                       : 0.107

Stream size                              : 1.60 GiB (97%)

Source stream size                       : 1.60 GiB (97%)

Encoded date                             : UTC 2022-06-11 16:21:39

Tagged date                              : UTC 2022-06-11 16:21:39

Color range                              : Limited

Color primaries                          : BT.709

Transfer characteristics                 : BT.709

Matrix coefficients                      : BT.709

mdhd_Duration                            : 2587668

Codec configuration box                  : hvcC



Audio

ID                                       : 2

Format                                   : AAC LC

Format/Info                              : Advanced Audio Codec Low Complexity

Codec ID                                 : mp4a-40-2

Duration                                 : 43 min 7 s

Source duration                          : 43 min 7 s

Bit rate mode                            : Constant

Bit rate                                 : 161 kb/s

Channel(s)                               : 2 channels

Channel layout                           : L R

Sampling rate                            : 48.0 kHz

Frame rate                               : 46.875 FPS (1024 SPF)

Compression mode                         : Lossy

Stream size                              : 49.6 MiB (3%)

Source stream size                       : 49.6 MiB (3%)

Title                                    : Stereo

Default                                  : Yes

Alternate group                          : 1

Encoded date                             : UTC 2022-06-11 16:21:39

Tagged date                              : UTC 2022-06-11 16:21:39

mdhd_Duration                            : 2587648

Screenshots:



Image error

Image error

Image error

Image error

Image error

Image error

Image error

Image error

Image error

Discussion

Comments 0

Post Your Comment

Files in this torrent

FILENAMESIZE
24.Season.2.Episode.20.Day.2.3.00.a.m.-4.00.a.m.H265.1080p.WEBRip.EzzRIps.m4v1.7 GB

Alternative Torrents for 'Season Episode Day am EzzRips'.

There are no alternative torrents found.