Lost Souls 2000 AMZN WEB-DLRip X264 SeleZen

Torrent Details


Lost Souls<span style=color:#777> 2000</span> AMZN WEB-DLRip x264<span style=color:#fc9c6d> seleZen</span>

NAME
Lost Souls 2000 AMZN WEB-DLRip x264 seleZen.torrent
CATEGORY
Movies
INFOHASH
7a1f49d284a79a8e127c45871538d31da2d6d68c
SIZE
2.7 GB in 1 file
ADDED
Uploaded on 28-07-2022 by our crawler pet called "Spidey".
SWARM
0 seeders & 0 peers
RATING
No votes yet.

Please login to vote for this torrent.


Description

Информация о фильме

Название: Заблудшие души / Потерянные души

Оригинальное название: Lost Souls

Год выхода: 2000

Жанр: Ужасы, триллер, драма

Режиссер: Януш Камински

В ролях: Вайнона Райдер, Бен Чаплин, Сара Уайнтер, Филип Бэйкер Холл, Джон Хёрт, Элиас Котеас, Брайан Редди, Джон Бизли, Джон Дил



О фильме:

Главная героиня узнает о существовании таинственного дьявольского заклятия, воплощение которого грозит человечеству приходом Сатаны. Для того, чтобы предотвратить пришествие Зла, ей надо найти человека, в тело которого собирается вселиться дьявол, и убедить его, что все это - не религиозные бредни, и его жизни угрожает реальная опасность…







Страна: США

Студия: Avery Pix, Castle Rock Entertainment, Prufrock Pictures

Продолжительность: 01:33:52

Перевод 1: Профессиональный (многоголосый, закадровый) R5

Перевод 2: Дублированный

Субтитры: Русские, английские



Файл

Формат: Matroska

Качество: WEB-DLRip-AVC | AMZN

Видео: 1024x436 at 25.000 fps, x264@L4.1, ~3051 kbps

Аудио 1: AC3, 6 ch, ~448 kbps - | Русский | | MVO |

Аудио 2: AC3, 2 ch, ~192 kbps - | Русский | | DUB |

Аудио 2: AC3, 6 ch, ~384 kbps - | Английский | | Original |

Формат субтитров: softsub (SRT)



***Рип от: -=DoMiNo=-









M/Ix264 [info]: frame I:788 Avg QP:19.08 size: 50776

x264 [info]: frame P:27275 Avg QP:20.98 size: 25935

x264 [info]: frame B:112737 Avg QP:23.17 size: 12426



General

Unique ID : 198788426233270953766940455982269211833 (0x958D421DDA796C673655C1E9C2E424B9)

Complete name : L:Lost.Souls.2000.AMZN.WEB-DLRip.x264.seleZen.mkv

Format : Matroska

Format version : Version 4

File size : 2.67 GiB

Duration : 1 h 33 min

Overall bit rate : 4 076 kb/s

Movie name : Lost.Souls.2000.AMZN.WEB-DLRip.x264.seleZen

Encoded date : UTC 2022-07-28 17:35:31

Writing application : mkvmerge v63.0.0 ('Everything') 64-bit

Writing library : libebml v1.4.2 + libmatroska v1.6.4

Cover : Yes

Attachments : cover.jpg / small_cover.jpg



Video

ID : 1

Format : AVC

Format/Info : Advanced Video Codec

Format profile : High@L4.1

Format settings : CABAC / 14 Ref Frames

Format settings, CABAC : Yes

Format settings, Reference : 14 frames

Codec ID : V_MPEG4/ISO/AVC

Duration : 1 h 33 min

Bit rate : 3 051 kb/s

Width : 1 024 pixels

Height : 436 pixels

Display aspect ratio : 2.35:1

Frame rate mode : Constant

Frame rate : 25.000 FPS

Color space : YUV

Chroma subsampling : 4:2:0

Bit depth : 8 bits

Scan type : Progressive

Bits/(Pixel*Frame) : 0.273

Stream size : 2.00 GiB (75%)

Title : -=DoMiNo=-

Writing library : x264 core 164 by -=DoMiNo=-

Encoding settings : cabac=1 / ref=14 / deblock=1:-1:-1 / analyse=0x3:0x133 / me=umh / subme=10 / psy=1 / psy_rd=1.00:0.15 / mixed_ref=1 / me_range=32 / chroma_me=1 / trellis=2 / 8x8dct=1 / cqm=0 / deadzone=21,11 / fast_pskip=0 / chroma_qp_offset=-3 / threads=17 / lookahead_threads=3 / sliced_threads=0 / nr=0 / decimate=0 / interlaced=0 / bluray_compat=0 / constrained_intra=0 / bframes=16 / b_pyramid=2 / b_adapt=2 / b_bias=0 / direct=3 / weightb=1 / open_gop=0 / weightp=2 / keyint=250 / keyint_min=25 / scenecut=40 / intra_refresh=0 / rc_lookahead=60 / rc=crf / mbtree=0 / crf=21.5 / qcomp=0.80 / qpmin=0 / qpmax=69 / qpstep=4 / vbv_maxrate=50000 / vbv_bufsize=62500 / crf_max=0.0 / nal_hrd=none / filler=0 / ip_ratio=1.35 / pb_ratio=1.25 / aq=1:0.90

Language : English

Default : Yes

Forced : No



Audio #1

ID : 2

Format : AC-3

Format/Info : Audio Coding 3

Commercial name : Dolby Digital

Codec ID : A_AC3

Duration : 1 h 33 min

Bit rate mode : Constant

Bit rate : 448 kb/s

Channel(s) : 6 channels

Channel layout : L R C LFE Ls Rs

Sampling rate : 48.0 kHz

Frame rate : 31.250 FPS (1536 SPF)

Compression mode : Lossy

Stream size : 301 MiB (11%)

Title : MVO R5

Language : Russian

Service kind : Complete Main

Default : Yes

Forced : Yes



Audio #2

ID : 3

Format : AC-3

Format/Info : Audio Coding 3

Commercial name : Dolby Digital

Codec ID : A_AC3

Duration : 1 h 33 min

Bit rate mode : Constant

Bit rate : 192 kb/s

Channel(s) : 2 channels

Channel layout : L R

Sampling rate : 48.0 kHz

Frame rate : 31.250 FPS (1536 SPF)

Compression mode : Lossy

Stream size : 129 MiB (5%)

Title : DUB

Language : Russian

Service kind : Complete Main

Default : No

Forced : No



Audio #3

ID : 4

Format : AC-3

Format/Info : Audio Coding 3

Commercial name : Dolby Digital

Codec ID : A_AC3

Duration : 1 h 33 min

Bit rate mode : Constant

Bit rate : 384 kb/s

Channel(s) : 6 channels

Channel layout : L R C LFE Ls Rs

Sampling rate : 48.0 kHz

Frame rate : 31.250 FPS (1536 SPF)

Compression mode : Lossy

Stream size : 258 MiB (9%)

Title : Original

Language : English

Service kind : Complete Main

Default : No

Forced : No



Text #1

ID : 5

Format : UTF-8

Codec ID : S_TEXT/UTF8

Codec ID/Info : UTF-8 Plain Text

Duration : 1 h 27 min

Bit rate : 59 b/s

Count of elements : 763

Stream size : 38.2 KiB (0%)

Language : Russian

Default : No

Forced : No



Text #2

ID : 6

Format : UTF-8

Codec ID : S_TEXT/UTF8

Codec ID/Info : UTF-8 Plain Text

Duration : 1 h 27 min

Bit rate : 39 b/s

Count of elements : 713

Stream size : 25.3 KiB (0%)

Language : English

Default : No

Forced : NoРелиз: Присоединяйся к: Кликай на баннеры.

Discussion

Comments 0

Post Your Comment

Files in this torrent

FILENAMESIZE
Lost.Souls.2000.AMZN.WEB-DLRip.x264.seleZen.mkv2.7 GB

Alternative Torrents for 'Lost Souls DLRip'.

There are no alternative torrents found.