Epica - Live At Paradiso (2022) [24Bit-44.1kHz] FLAC

Torrent Details


Epica - Live At Paradiso <span style=color:#777>(2022)</span> [24Bit-44.1kHz]  FLAC

NAME
Epica - Live At Paradiso (2022) [24Bit-44.1kHz] FLAC.torrent
CATEGORY
Music
INFOHASH
2f250801c9dd40214f9b30b45ca0a0e41d58285d
SIZE
767 MB in 20 files
ADDED
Uploaded on 05-09-2022 by our crawler pet called "Spidey".
SWARM
0 seeders & 0 peers
RATING
No votes yet.

Please login to vote for this torrent.


Description

Название: Live At Paradiso

Исполнитель: Epica

Год: 2022

Жанр: Symphonic-Metal, Gothic-Metal



Продолжительность: 01:53:36

Формат/Кодек: FLAC

Тип рипа: Tracks

Битрейт аудио: Lossless

Разрядность: 24 Bit/44,1 kHz







Трек-лист

01. Hunab K'u (Live At Paradiso)

02. Dance Of Fate (Live At Paradiso)

03. Sensorium (Live At Paradiso)

04. The Last Crusade (Live At Paradiso)

05. Solitary Ground (Live At Paradiso)

06. Force Of The Shore (Live At Paradiso)

07. Quietus (Live At Paradiso)

08. Linger (Live At Paradiso)

09. Blank Infinity (Live At Paradiso)

10. Crystal Mountain (Live At Paradiso)

11. Seif al Din (Live At Paradiso)

12. Façade of Reality (Live At Paradiso)

13. Trois Vierges (Live At Paradiso)

14. Another Me (In Lack'ech) (Live At Paradiso)

15. The Phantom Agony (Live At Paradiso)

16. Cry For The Moon (Live At Paradiso)

17. Run For A Fall (Live At Paradiso)

18. Mother Of Light (Live At Paradiso)

19. Consign To Oblivion (Live At Paradiso)



DRM

foobar2000 1.5.5 / Замер динамического диапазона (DR) 1.1.1

Дата отчёта: 2022-09-05 09:52:53



--------------------------------------------------------------------------------

Анализ: Epica / Live At Paradiso

--------------------------------------------------------------------------------



DR Пики RMS Продолжительность трека

--------------------------------------------------------------------------------

DR13 -0.53 дБ -17.21 дБ 1:59 01-Hunab K'u (Live At Paradiso)

DR7 0.00 дБ -8.35 дБ 5:48 02-Dance Of Fate (Live At Paradiso)

DR7 0.00 дБ -7.98 дБ 4:59 03-Sensorium (Live At Paradiso)

DR7 0.00 дБ -8.87 дБ 4:26 04-The Last Crusade (Live At Paradiso)

DR9 0.00 дБ -11.86 дБ 4:52 05-Solitary Ground (Live At Paradiso)

DR7 0.00 дБ -9.28 дБ 4:25 06-Force Of The Shore (Live At Paradiso)

DR8 0.00 дБ -9.75 дБ 4:39 07-Quietus (Live At Paradiso)

DR12 -0.81 дБ -15.57 дБ 4:18 08-Linger (Live At Paradiso)

DR8 0.00 дБ -8.56 дБ 4:02 09-Blank Infinity (Live At Paradiso)

DR7 0.00 дБ -8.65 дБ 4:55 10-Crystal Mountain (Live At Paradiso)

DR7 0.00 дБ -8.48 дБ 5:40 11-Seif al Din (Live At Paradiso)

DR7 0.00 дБ -8.85 дБ 8:49 12-Façade of Reality (Live At Paradiso)

DR11 -0.17 дБ -14.60 дБ 5:12 13-Trois Vierges (Live At Paradiso)

DR9 0.00 дБ -9.64 дБ 4:47 14-Another Me (In Lack'ech) (Live At Paradiso)

DR8 0.00 дБ -10.90 дБ 10:53 15-The Phantom Agony (Live At Paradiso)

DR8 0.00 дБ -9.42 дБ 7:59 16-Cry For The Moon (Live At Paradiso)

DR8 0.00 дБ -10.90 дБ 7:08 17-Run For A Fall (Live At Paradiso)

DR7 0.00 дБ -9.27 дБ 7:10 18-Mother Of Light (Live At Paradiso)

DR7 0.00 дБ -9.54 дБ 11:35 19-Consign To Oblivion (Live At Paradiso)

--------------------------------------------------------------------------------



Количество треков: 19

Реальные значения DR: DR8



Частота: 44100 Гц

Каналов: 2

Разрядность: 24

Битрейт: 963 кбит/с

Кодек: FLAC

=====================================================================









Время раздачи: 24/7 (минимум до появления первых 3-5 скачавших, на раздачи не возвращаюсь)





Первое правило участника файлообмена: "Скачал сам - дай скачать другому!"







Discussion

Comments 0

Post Your Comment

Files in this torrent

FILENAMESIZE
01. Hunab K'u.flac12.1 MB
02. Dance Of Fate.flac41.9 MB
03. Sensorium.flac36.3 MB
04. The Last Crusade.flac31.6 MB
05. Solitary Ground.flac31.7 MB
06. Force Of The Shore.flac30.2 MB
07. Quietus.flac31.9 MB
08. Linger.flac23.9 MB
09. Blank Infinity.flac28.7 MB
10. Crystal Mountain.flac34.1 MB
11. Seif al Din.flac39.6 MB
12. Façade of Reality.flac60.6 MB
13. Trois Vierges.flac31.4 MB
14. Another Me (In Lack'ech).flac32.8 MB
15. The Phantom Agony.flac72.1 MB
16. Cry For The Moon.flac54.4 MB
17. Run For A Fall.flac46.2 MB
18. Mother Of Light.flac47.8 MB
19. Consign To Oblivion.flac79.9 MB
cover.jpg77.8 KB

Alternative Torrents for 'Epica Live At Paradiso Bit.kHz FLAC'.

There are no alternative torrents found.