Un Monde 2021 BDREMUX 1080p SeleZen

Torrent Details


Un Monde<span style=color:#777> 2021</span> BDREMUX 1080p<span style=color:#fc9c6d> seleZen</span>

NAME
Un Monde 2021 BDREMUX 1080p seleZen.torrent
CATEGORY
Movies
INFOHASH
a068f0ee9d09739735dd10561ea5dcc5cf8dc51f
SIZE
14.1 GB in 1 file
ADDED
Uploaded on 15-10-2022 by our crawler pet called "Spidey".
SWARM
6 seeders & 0 peers
RATING
No votes yet.

Please login to vote for this torrent.


Description

Информация о фильме

Название: Невидимый мир

Оригинальное название: Un Monde / Playground

Год выхода: 2021

Жанр: Драма

Режиссер: Лаура Вандель

В ролях: Майя Вандербеке, Гюнтер Дюре, Лаура Верлинден, Лена Жирард Восс, Карим Леклу, Тао Мартен, Саймон Кодри, Джеймс Сегюи, Наэль Аммама, Эмиль Саламон, Лорен Капеллуто







О фильме: Абель (Гюнтер Дюре) и Нора (Майя Вандербек) – брат и сестра. Мальчик чуть постарше, но уже знает законы школьный площадки. В первый же день он идет бить новичков с главным хулиганом школы, но когда тумаки получает Нора – Абель вступается за сестру и сам становится жертвой издевательств. Вмешательство родителей и учителей не спасает ситуацию, и детям приходится самостоятельно справляться со всеми ужасами школьного буллинга.



Страна: Бельгия

Студия: BE TV, Dragons Films, Lunanime

Продолжительность: 01:12:33

Перевод: Дублированный | Pride Production



Качество: BDRemux 1080p

Видео: MPEG-4 AVC, 1920x1080, 25.0 Mbit/s, 24.000 fps

Аудио #01: 48 kHz, AC3, 5.1, 448 Kbps | Дублированный | Pride Production | RUS |

Аудио #02: 48 kHz, AC3, 5.1, 448 Kbps | Дублированный | Pride Production | RUS |

Аудио #03: 48 kHz, DTS-HD MA, 5.1, 1928 Kbps | Оригинал | FRE |

Субтитры: Русские (Full), английские







MIGeneral

Unique ID : 214345322797760822070540599576571348321 (0xA1416855F4403E989F740E7EBA5B0561)

Complete name : D:VideosUn.Monde.2021.BDREMUX.1080p.seleZen.mkv

Format : Matroska

Format version : Version 4

File size : 14.1 GiB

Duration : 1 h 12 min

Overall bit rate mode : Variable

Overall bit rate : 27.8 Mb/s

Movie name : Un Monde / Playground 2021 from seleZen

Encoded date : UTC 2022-10-15 16:33:58

Writing application : mkvmerge v59.0.0 ('Shining Star') 64-bit

Writing library : libebml v1.4.2 + libmatroska v1.6.4



Video

ID : 1

ID in the original source m : 4113 (0x1011)

Format : AVC

Format/Info : Advanced Video Codec

Format profile : High@L4.1

Format settings : CABAC / 4 Ref Frames

Format settings, CABAC : Yes

Format settings, Reference : 4 frames

Codec ID : V_MPEG4/ISO/AVC

Duration : 1 h 12 min

Bit rate mode : Variable

Bit rate : 25.0 Mb/s

Maximum bit rate : 35.0 Mb/s

Width : 1 920 pixels

Height : 1 080 pixels

Display aspect ratio : 16:9

Frame rate mode : Constant

Frame rate : 24.000 FPS

Standard : NTSC

Color space : YUV

Chroma subsampling : 4:2:0

Bit depth : 8 bits

Scan type : Progressive

Bits/(Pixel*Frame) : 0.502

Stream size : 12.7 GiB (90%)

Language : English

Default : Yes

Forced : No

Color range : Limited

Color primaries : BT.709

Transfer characteristics : BT.709

Matrix coefficients : BT.709

Original source medium : Blu-ray



Audio #1

ID : 2

Format : AC-3

Format/Info : Audio Coding 3

Commercial name : Dolby Digital

Codec ID : A_AC3

Duration : 1 h 12 min

Bit rate mode : Constant

Bit rate : 448 kb/s

Channel(s) : 6 channels

Channel layout : L R C LFE Ls Rs

Sampling rate : 48.0 kHz

Frame rate : 31.250 FPS (1536 SPF)

Compression mode : Lossy

Stream size : 233 MiB (2%)

Title : Dub

Language : Russian

Service kind : Complete Main

Default : Yes

Forced : Yes



Audio #2

ID : 3

Format : E-AC-3

Format/Info : Enhanced AC-3

Commercial name : Dolby Digital Plus

Codec ID : A_EAC3

Duration : 1 h 12 min

Bit rate mode : Constant

Bit rate : 448 kb/s

Channel(s) : 6 channels

Channel layout : L R C LFE Ls Rs

Sampling rate : 48.0 kHz

Frame rate : 31.250 FPS (1536 SPF)

Compression mode : Lossy

Stream size : 233 MiB (2%)

Title : Dub

Language : Russian

Service kind : Complete Main

Default : No

Forced : No



Audio #3

ID : 4

ID in the original source m : 4352 (0x1100)

Format : DTS XLL

Format/Info : Digital Theater Systems

Commercial name : DTS-HD Master Audio

Codec ID : A_DTS

Duration : 1 h 12 min

Bit rate mode : Variable

Bit rate : 1 928 kb/s

Channel(s) : 6 channels

Channel layout : C L R Ls Rs LFE

Sampling rate : 48.0 kHz

Frame rate : 93.750 FPS (512 SPF)

Bit depth : 16 bits

Compression mode : Lossless

Stream size : 1 001 MiB (7%)

Title : Original

Language : French

Default : No

Forced : No

Original source medium : Blu-ray



Text #1

ID : 5

Format : UTF-8

Codec ID : S_TEXT/UTF8

Codec ID/Info : UTF-8 Plain Text

Duration : 1 h 6 min

Bit rate : 54 b/s

Frame rate : 0.172 FPS

Count of elements : 690

Stream size : 26.7 KiB (0%)

Title : Full

Language : Russian

Default : No

Forced : No



Text #2

ID : 6

Format : UTF-8

Codec ID : S_TEXT/UTF8

Codec ID/Info : UTF-8 Plain Text

Duration : 1 h 11 min

Bit rate : 34 b/s

Frame rate : 0.161 FPS

Count of elements : 688

Stream size : 18.1 KiB (0%)

Title : Full

Language : English

Default : No

Forced : No



Menu

00:00:00.000 : Chapter 01

00:09:35.000 : Chapter 02

00:16:29.583 : Chapter 03

00:23:11.666 : Chapter 04

00:36:25.416 : Chapter 05

00:45:05.208 : Chapter 06

00:53:22.916 : Chapter 07

01:00:14.583 : Chapter 08

01:08:54.166 : Chapter 09



Релиз: Присоединяйся к: Кликай на баннеры.

Discussion

Comments 0

Post Your Comment

Files in this torrent

FILENAMESIZE
Un.Monde.2021.BDREMUX.1080p.seleZen.mkv14.1 GB

Alternative Torrents for 'Un Monde'.

There are no alternative torrents found.