Weird The Al Yankovic Story 2022 1080p ROKU WEBRip DD 5.1 X264-SMURF

Torrent Details

Weird The Al Yankovic Story<span style=color:#777> 2022</span> 1080p ROKU WEBRip DD 5.1 x264<span style=color:#fc9c6d>-SMURF</span>Weird The Al Yankovic Story<span style=color:#777> 2022</span> 1080p ROKU WEBRip DD 5.1 x264<span style=color:#fc9c6d>-SMURF</span>

NAME
Weird The Al Yankovic Story 2022 1080p ROKU WEBRip DD 5.1 x264-SMURF.torrent
CATEGORY
Movies
INFOHASH
4decd77856770316e211714b8885747e16a1d5dd
SIZE
4.2 GB in 2 files
ADDED
Uploaded on 04-11-2022 by our crawler pet called "Spidey".
SWARM
0 seeders & 0 peers
RATING
No votes yet.

Please login to vote for this torrent.


Description

帖子完整标题:怪人:阿尔·杨科维克的故事 Weird.The.Al.Yankovic.Story.2022.1080p.ROKU.WEBRip.DD5.1.x264-SMURF 4.17GB◎标  题 怪人:阿尔·杨科维克的故事◎片  名 Weird: The Al Yankovic Story◎年  代 2022◎产  地 美国◎类  别 喜剧 / 音乐 / 传记◎语  言 英语◎上映日期 2022-09-08(多伦多电影节) / 2022-11-04(美国网络)◎IMDb评分 7.5/10 (349人评价)◎IMDb链接 https://www.imdb.com/title/tt17076046/◎豆瓣链接 https://movie.douban.com/subject/35750116/◎导  演 埃里克·阿佩尔 Eric Appel◎编  剧 埃里克·阿佩尔 Eric Appel      阿尔·杨科维克 'Weird Al' Yankovic◎演  员 丹尼尔·雷德克里夫 Daniel Radcliffe      埃文·蕾切尔·伍德 Evan Rachel Wood      雷恩·威尔森 Rainn Wilson      朱丽安妮·尼科尔森 Julianne Nicholson      托马斯·列农 Thomas Lennon      斯宾塞·崔特·克拉克 Spencer Treat Clark      托比·哈斯 Toby Huss      昆塔·布伦森 Quinta Brunson       詹姆斯·普雷斯顿·罗杰斯 James Preston Rogers      帕洛马·拉比诺夫 Paloma Rabinov      小吉米·沃克 Jimmy Walker Jr.      詹姆斯·亨特 James Hunter◎简  介   探索了扬科维奇生活的方方面面,从他以《吃吧》和《像外科医生》等早期热门歌曲迅速成名,到他炙手可热的名人恋情和著名的堕落生活方式。VideoID : 1Format : AVCFormat/Info : Advanced Video CodecFormat profile : [email protected]Format settings : CABAC / 3 Ref FramesFormat settings, CABAC : YesFormat settings, Reference frames : 3 framesCodec ID : V_MPEG4/ISO/AVCDuration : 1 h 47 minBit rate mode : VariableBit rate : 5 158 kb/sMaximum bit rate : 5 495 kb/sWidth : 1 920 pixelsHeight : 1 080 pixelsDisplay aspect ratio : 16:9Frame rate mode : ConstantFrame rate : 23.976 (24000/1001/189150) FPSColor space : YUVChroma subsampling : 4:2:0Bit depth : 8 bitsScan type : ProgressiveBits/(Pixel*Frame) : 0.104Stream size : 3.88 GiB (93%)Default : YesForced : NoColor range : LimitedColor primaries : BT.709Transfer characteristics : BT.709Matrix coefficients : BT.709AudioID : 2Format : AC-3Format/Info : Audio Coding 3Commercial name : Dolby DigitalCodec ID : A_AC3Duration : 1 h 47 minBit rate mode : ConstantBit rate : 384 kb/sChannel(s) : 6 channelsChannel layout : L R C LFE Ls RsSampling rate : 48.0 kHzFrame rate : 31.250 FPS (1536 SPF)Compression mode : LossyStream size : 296 MiB (7%)Language : EnglishService kind : Complete MainDefault : YesForced : NoText #1ID : 3Format : UTF-8Codec ID : S_TEXT/UTF8Codec ID/Info : UTF-8 Plain TextDuration : 1 h 46 minBit rate : 65 b/sFrame rate : 0.221 FPSCount of elements : 1407Stream size : 50.6 KiB (0%)Language : EnglishDefault : NoForced : NoText #2ID : 4Format : UTF-8Codec ID : S_TEXT/UTF8Codec ID/Info : UTF-8 Plain TextDuration : 1 h 47 minBit rate : 84 b/sFrame rate : 0.280 FPSCount of elements : 1806Stream size : 66.6 KiB (0%)Title : SDHLanguage : EnglishDefault : NoForced : NoText #3ID : 5Format : UTF-8Codec ID : S_TEXT/UTF8Codec ID/Info : UTF-8 Plain TextDuration : 1 h 47 minBit rate : 67 b/sFrame rate : 0.254 FPSCount of elements : 1636Stream size : 52.7 KiB (0%)Language : SpanishDefault : NoForced : NoText #4ID : 6Format : UTF-8Codec ID : S_TEXT/UTF8Codec ID/Info : UTF-8 Plain TextDuration : 1 h 47 minBit rate : 74 b/sFrame rate : 0.254 FPSCount of elements : 1638Stream size : 58.8 KiB (0%)Language : FrenchDefault : NoForced : NoText #5ID : 7Format : UTF-8Codec ID : S_TEXT/UTF8Codec ID/Info : UTF-8 Plain TextDuration : 1 h 47 minBit rate : 74 b/sFrame rate : 0.248 FPSCount of elements : 1595Stream size : 58.7 KiB (0%)Title : BrazilianLanguage : PortugueseDefault : NoForced : NoMenu00:16:53.377 : en:Chapter 0100:29:49.168 : en:Chapter 0200:38:55.459 : en:Chapter 0300:49:29.175 : en:Chapter 0400:59:24.739 : en:Chapter 0501:10:06.492 : en:Chapter 0601:22:22.036 : en:Chapter 0701:33:37.543 : en:Chapter 0801:42:19.280 : en:Credits

Discussion

Comments 0

Post Your Comment

Files in this torrent

FILENAMESIZE
RARBG.txt31 B
Weird.The.Al.Yankovic.Story.2022.1080p.ROKU.WEB-DL.DD5.1.H.264-SMURF.mkv4.2 GB

Alternative Torrents for 'Weird Al Yankovic Story ROKU'.

There are no alternative torrents found.