The Independent 2022 2160p PCOK WEB-DL X265 8bit SDR DDP5.1-KOGi

Torrent Details

The Independent<span style=color:#777> 2022</span> 2160p PCOK WEB-DL x265 8bit SDR DDP5.1<span style=color:#fc9c6d>-KOGi</span>The Independent<span style=color:#777> 2022</span> 2160p PCOK WEB-DL x265 8bit SDR DDP5.1<span style=color:#fc9c6d>-KOGi</span>

NAME
The Independent 2022 2160p PCOK WEB-DL x265 8bit SDR DDP5.1-KOGi.torrent
CATEGORY
Movies
INFOHASH
6e7d86e360611c8c8af35f3fee0913d2f843d2a7
SIZE
11.4 GB in 3 files
ADDED
Uploaded on 13-11-2022 by our crawler pet called "Spidey".
SWARM
0 seeders & 1 peers
RATING
No votes yet.

Please login to vote for this torrent.


Description

帖子完整标题:独立候选人 The.Independent.2022.2160p.PCOK.WEB-DL.x265.8bit.SDR.DDP5.1-KOGi 11.42GB◎标  题 独立候选人◎片  名 The Independent◎年  代 2022◎产  地 美国◎类  别 惊悚◎语  言 英语◎上映日期 2022-11-02(美国网络)◎IMDb链接 https://www.imdb.com/title/tt3416670/◎豆瓣链接 https://movie.douban.com/subject/34971428/◎导  演 艾米·赖斯 Amy Rice◎编  剧 伊万·帕特 Evan Parter◎演  员 约翰·塞纳 John Cena      布莱恩·考克斯 Brian Cox      朱迪·特纳-史密斯 Jodie Turner-Smith      安·唐德 Ann Dowd      迈克尔·甘多菲尼 Michael Gandolfini      阿莱西娅·雷纳 Alysia Reiner      维克多·斯勒扎克 Victor Slezak      蒂莫西·布斯菲尔德 Timothy Busfield      凯西亚·刘易斯 Kecia Lewis      朱莉安娜·亚历山大 Julianne Alexander      赞恩·派斯 Zane Pais◎简  介   影片讲述一位年轻的记者发现了一个涉及美国总统候选人的阴谋,这可能会改变选举和国家命运。 本片由The Exchange在柏林EFM上推出。Video ID : 1 Format : HEVC Format/Info : High Efficiency Video Coding Format profile : [email protected]@Main Codec ID : V_MPEGH/ISO/HEVC Duration : 1 h 47 min Bit rate : 15.0 Mb/s Width : 3 840 pixels Height : 2 160 pixels Display aspect ratio : 16:9 Frame rate mode : Constant Frame rate : 23.976 (24000/1001/189150) FPS Color space : YUV Chroma subsampling : 4:2:0 Bit depth : 8 bits Bits/(Pixel*Frame) : 0.075 Stream size : 11.3 GiB (99%) Writing library : x265 3.2.1b5c86a64bbbe:[Linux][GCC 7.5.0][64 bit] 8bit+10bit+12bit Encoding settings : cpuid=1111039 / frame-threads=6 / wpp / no-pmode / no-pme / no-psnr / no-ssim / log-level=2 / input-csp=1 / input-res=3840x2160 / interlace=0 / total-frames=0 / level-idc=0 / high-tier=1 / uhd-bd=0 / ref=3 / no-allow-non-conformance / repeat-headers / annexb / no-aud / no-hrd / info / hash=0 / no-temporal-layers / no-open-gop / min-keyint=1 / keyint=48 / gop-lookahead=0 / bframes=4 / b-adapt=2 / b-pyramid / bframe-bias=0 / rc-lookahead=20 / lookahead-slices=8 / scenecut=0 / radl=0 / no-splice / no-intra-refresh / ctu=64 / min-cu-size=8 / no-rect / no-amp / max-tu-size=32 / tu-inter-depth=1 / tu-intra-depth=1 / limit-tu=0 / rdoq-level=0 / dynamic-rd=0.00 / no-ssim-rd / signhide / no-tskip / nr-intra=0 / nr-inter=0 / no-constrained-intra / strong-intra-smoothing / max-merge=3 / limit-refs=1 / no-limit-modes / me=1 / subme=2 / merange=57 / temporal-mvp / no-hme / weightp / no-weightb / no-analyze-src-pics / deblock=0:0 / sao / no-sao-non-deblock / rd=3 / selective-sao=4 / early-skip / rskip / no-fast-intra / no-tskip-fast / no-cu-lossless / b-intra / no-splitrd-skip / rdpenalty=0 / psy-rd=2.00 / psy-rdoq=0.00 / no-rd-refine / no-lossless / cbqpoffs=0 / crqpoffs=0 / rc=abr / bitrate=15000 / qcomp=0.60 / qpstep=4 / stats-write=0 / stats-read=2 / cplxblur=20.0 / qblur=0.5 / vbv-maxrate=22500 / vbv-bufsize=22500 / vbv-init=1.0 / ipratio=1.40 / pbratio=1.30 / aq-mode=2 / aq-strength=1.00 / cutree / zone-count=0 / no-strict-cbr / qg-size=32 / no-rc-grain / qpmax=69 / qpmin=0 / no-const-vbv / sar=1 / overscan=0 / videoformat=5 / range=0 / colorprim=2 / transfer=2 / colormatrix=1 / chromaloc=0 / display-window=0 / cll=0,0 / min-luma=0 / max-luma=255 / log2-max-poc-lsb=8 / vui-timing-info / vui-hrd-info / slices=1 / no-opt-qp-pps / no-opt-ref-list-length-pps / no-multi-pass-opt-rps / scenecut-bias=0.05 / no-opt-cu-delta-qp / no-aq-motion / no-hdr / no-hdr-opt / no-dhdr10-opt / no-idr-recovery-sei / analysis-reuse-level=5 / scale-factor=0 / refine-intra=0 / refine-inter=0 / refine-mv=1 / refine-ctu-distortion=0 / no-limit-sao / ctu-info=0 / no-lowpass-dct / refine-analysis-type=0 / copy-pic=1 / max-ausize-factor=1.0 / no-dynamic-refine / no-single-sei / no-hevc-aq / no-svt / no-field / qp-adaptation-range=1.00 Language : English Default : Yes Forced : No Color range : Limited Matrix coefficients : BT.709 Audio ID : 2 Format : E-AC-3 Format/Info : Enhanced AC-3 Commercial name : Dolby Digital Plus Codec ID : A_EAC3 Duration : 1 h 47 min Bit rate mode : Constant Bit rate : 192 kb/s Channel(s) : 6 channels Channel layout : L R C LFE Ls Rs Sampling rate : 48.0 kHz Frame rate : 31.250 FPS (1536 SPF) Compression mode : Lossy Stream size : 148 MiB (1%) Language : English Service kind : Complete Main Default : Yes Forced : No Text #1 ID : 3 Format : UTF-8 Codec ID : S_TEXT/UTF8 Codec ID/Info : UTF-8 Plain Text Duration : 1 h 47 min Bit rate : 86 b/s Frame rate : 0.335 FPS Count of elements : 2159 Stream size : 68.4 KiB (0%) Title : English Language : English Default : No Forced : No Text #2 ID : 4 Format : UTF-8 Codec ID : S_TEXT/UTF8 Codec ID/Info : UTF-8 Plain Text Duration : 1 h 42 min Bit rate : 93 b/s Frame rate : 0.335 FPS Count of elements : 2055 Stream size : 70.0 KiB (0%) Title : Spanish Language : Spanish Default : No Forced : No

Discussion

Comments 0

Post Your Comment

Files in this torrent

FILENAMESIZE
RARBG.txt31 B
The.Independent.2022.2160p.WEB.h265-KOGi.mkv11.4 GB
the.independent.2022.2160p.web.h265-kogi.nfo3.2 KB

Alternative Torrents for 'Independent PCOK bit SDR'.

There are no alternative torrents found.