Nokas 2010 NORWEGIAN 1080p BluRay X264 DTS-UxO

Torrent Details

Nokas<span style=color:#777> 2010</span> NORWEGIAN 1080p BluRay x264 DTS-UxONokas<span style=color:#777> 2010</span> NORWEGIAN 1080p BluRay x264 DTS-UxO

NAME
Nokas 2010 NORWEGIAN 1080p BluRay x264 DTS-UxO.torrent
CATEGORY
Movies
INFOHASH
b504e34499ac517b56e9ec195b6f33aba83b3093
SIZE
9.1 GB in 2 files
ADDED
Uploaded on 13-11-2022 by our crawler pet called "Spidey".
SWARM
0 seeders & 2 peers
RATING
No votes yet.

Please login to vote for this torrent.


Description

帖子完整标题:盗案 Nokas.2010.NORWEGIAN.1080p.BluRay.x264.DTS-UxO 9.05GB◎标  题 盗案◎译  名 惊天盗案 / 诺卡斯盗案◎片  名 Nokas◎年  代 2010◎产  地 挪威◎类  别 剧情 / 犯罪◎语  言 挪威语◎上映日期 2010◎IMDb评分 6.5/10 (4490人评价)◎IMDb链接 https://www.imdb.com/title/tt1337366/◎豆瓣评分 6.4/10 (651人评价)◎豆瓣链接 https://movie.douban.com/subject/3334410/◎片  长 87 Mins◎导  演 埃里克·斯柯比约格 Erik Skjoldbjærg◎编  剧 克里斯托弗·格伦达尔 Christopher Grøndahl◎简  介     这是一部根据真实事件拍摄的挪威电影,讲的是2004年4月5日早上8点左右发生在挪威斯塔万格的现金服务中心的劫案,劫匪一共11人,伪装成特警模样,花了大概22分钟(原计划8分钟)劫走约5740万克朗的纸币,整个过程造成一名警员Arne Sigve Klungland死亡。VideoID : 1Format : AVCFormat/Info : Advanced Video CodecFormat profile : [email protected]Format settings : CABAC / 4 Ref FramesFormat settings, CABAC : YesFormat settings, Reference frames : 4 framesCodec ID : V_MPEG4/ISO/AVCDuration : 1 h 26 minBit rate : 13.4 Mb/sWidth : 1 920 pixelsHeight : 1 036 pixelsDisplay aspect ratio : 1.85:1Frame rate mode : ConstantFrame rate : 25.000 FPSColor space : YUVChroma subsampling : 4:2:0Bit depth : 8 bitsScan type : ProgressiveBits/(Pixel*Frame) : 0.269Stream size : 8.13 GiB (90%)Writing library : x264 core 112 r1834 a51816aEncoding settings : cabac=1 / ref=4 / deblock=1:-3:-3 / analyse=0x3:0x133 / me=umh / subme=10 / psy=1 / psy_rd=1.20:0.30 / mixed_ref=1 / me_range=24 / chroma_me=1 / trellis=2 / 8x8dct=1 / cqm=0 / deadzone=21,11 / fast_pskip=1 / chroma_qp_offset=-4 / threads=6 / sliced_threads=0 / nr=0 / decimate=1 / interlaced=0 / constrained_intra=0 / bframes=8 / b_pyramid=2 / b_adapt=2 / b_bias=0 / direct=3 / weightb=1 / open_gop=0 / weightp=2 / keyint=250 / keyint_min=25 / scenecut=40 / intra_refresh=0 / rc_lookahead=60 / rc=crf / mbtree=1 / crf=19.0 / qcomp=0.60 / qpmin=0 / qpmax=51 / qpstep=4 / vbv_maxrate=50000 / vbv_bufsize=50000 / crf_max=0.0 / ip_ratio=1.40 / aq=1:0.90 / nal_hrd=noneLanguage : NorwegianDefault : YesForced : NoAudioID : 2Format : DTSFormat/Info : Digital Theater SystemsCodec ID : A_DTSDuration : 1 h 27 minBit rate mode : ConstantBit rate : 1 509 kb/sChannel(s) : 6 channelsChannel layout : C L R Ls Rs LFESampling rate : 48.0 kHzFrame rate : 93.750 FPS (512 SPF)Bit depth : 24 bitsCompression mode : LossyStream size : 945 MiB (10%)Language : NorwegianDefault : YesForced : NoTextID : 3Format : UTF-8Codec ID : S_TEXT/UTF8Codec ID/Info : UTF-8 Plain TextDuration : 1 h 21 minBit rate : 36 b/sFrame rate : 0.135 FPSCount of elements : 663Stream size : 21.9 KiB (0%)Language : EnglishDefault : NoForced : No

Discussion

Comments 0

Post Your Comment

Files in this torrent

FILENAMESIZE
Nokas.2010.1080p.BluRay.DTS.x264-UxO.mkv9.1 GB
RARBG.txt31 B

Alternative Torrents for 'Nokas NORWEGIAN DTSUxO'.

There are no alternative torrents found.