Mistress 1976 FRENCH 1080p BluRay X264 FLAC1 0-BYRHD

Torrent Details

Mistress<span style=color:#777> 1976</span> FRENCH 1080p BluRay x264 FLAC1 0-BYRHDMistress<span style=color:#777> 1976</span> FRENCH 1080p BluRay x264 FLAC1 0-BYRHD

NAME
Mistress 1976 FRENCH 1080p BluRay x264 FLAC1 0-BYRHD.torrent
CATEGORY
Movies
INFOHASH
4e7754bc7e7a646a3d7cd8f44a51d240f040daf5
SIZE
8.6 GB in 2 files
ADDED
Uploaded on 13-11-2022 by our crawler pet called "Spidey".
SWARM
0 seeders & 1 peers
RATING
No votes yet.

Please login to vote for this torrent.


Description

帖子完整标题:情妇 Mistress.1976.FRENCH.1080p.BluRay.x264.FLAC1.0-BYRHD 8.63GB◎标  题 情妇◎译  名 小姐跟我走 / Mistress◎片  名 Maîtresse◎年  代 1975◎产  地 法国◎类  别 剧情 / 爱情◎语  言 法语◎上映日期 1975-04-28◎IMDb评分 6.6/10 (2150人评价)◎IMDb链接 https://www.imdb.com/title/tt0074883/◎豆瓣评分 6.5/10 (921人评价)◎豆瓣链接 https://movie.douban.com/subject/1417372/◎片  长 112 分钟◎导  演 巴贝特·施罗德 Barbet Schroeder◎编  剧 巴贝特·施罗德 Barbet Schroeder◎演  员 热拉尔·德帕迪约 Gérard Depardieu      布鲁·欧吉尔 Bulle Ogier      安德烈·卢耶 André Rouyer      罗兰·伯汀 Roland Bertin      Serge Berry Serge Berry      Jeanne Herviale Jeanne Herviale      霍尔格·洛文纳德勒 Holger Löwenadler      Carlos D'Alessio Carlos D'Alessio      内斯托尔·阿尔门德罗斯 Néstor Almendros      Denise de Casabianca Denise de Casabianca      卡尔·拉格菲尔德 Karl Lagerfeld      让-弗朗索瓦·斯泰弗南 Jean-François Stévenin◎简  介   时常无所事事在街头闲晃的奥利弗(杰拉尔•德帕迪约 Gérard Depardieu 饰)和朋友偶然来到了艾莲娜(布鲁•欧吉尔 Bulle Ogier 饰)的家里推销书籍,却阴差阳错的进入到后者在自家的工作室——一个充满变态用具的地下室,原来艾莲娜是一个向众多男子提供虐待服务的高级妓女。奥利弗被拉入参与了一次游戏后,便不能自已的爱上了美丽性感的艾莲娜,并且随即邀请她吃饭,两人走到了一起。艾莲娜经常在早上接到老板的任务电话,随后进入地下室“招待”她的客人们。奥利弗不愿艾莲娜耽于如此生活,向她的老板索取报酬,并且要其放过艾莲娜。艾莲娜得知这个消息后却勃然大怒,对奥利弗恶语相向……VideoID : 1Format : AVCFormat/Info : Advanced Video CodecFormat profile : [email protected]Format settings : CABAC / 4 Ref FramesFormat settings, CABAC : YesFormat settings, Reference frames : 4 framesCodec ID : V_MPEG4/ISO/AVCDuration : 1 h 52 minBit rate : 10.7 Mb/sWidth : 1 798 pixelsHeight : 1 080 pixelsDisplay aspect ratio : 5:3Frame rate mode : ConstantFrame rate : 23.976 (24000/1001/189150) FPSColor space : YUVChroma subsampling : 4:2:0Bit depth : 8 bitsScan type : ProgressiveBits/(Pixel*Frame) : 0.230Stream size : 8.39 GiB (97%)Writing library : x264 core 164 r3085+55M 938b6d0 t_mod_New [(8 & 10)[email protected] X86_64]Encoding settings : cabac=1 / ref=4 / deblock=1:-3:-3 / analyse=0x3:0x133 / me=tesa / subme=11 / psy=1 / fade_compensate=0.00 / psy_rd=1.00:0.15 / mixed_ref=1 / me_range=48 / chroma_me=1 / trellis=2 / 8x8dct=1 / cqm=0 / deadzone=21,11 / fast_pskip=1 / chroma_qp_offset=-3 / threads=18 / lookahead_threads=3 / sliced_threads=0 / nr=0 / decimate=1 / interlaced=0 / bluray_compat=0 / constrained_intra=0 / fgo=0 / bframes=9 / b_pyramid=2 / b_adapt=2 / b_bias=0 / direct=3 / weightb=1 / open_gop=0 / weightp=2 / keyint=250 / keyint_min=23 / scenecut=40 / intra_refresh=0 / rc=crf / mbtree=0 / crf=23.8000 / qcomp=0.70 / qpmin=0:0:0 / qpmax=69:69:69 / qpstep=4 / ip_ratio=1.40 / pb_ratio=1.30 / aq=1:1.00 / aq-sensitivity=10.00 / aq-factor=1.00:1.00:1.00 / aq2=0 / aq3=0Language : FrenchDefault : YesForced : NoAudioID : 2Format : FLACFormat/Info : Free Lossless Audio CodecCodec ID : A_FLACDuration : 1 h 52 minBit rate mode : VariableBit rate : 297 kb/sChannel(s) : 1 channelChannel layout : CSampling rate : 48.0 kHzFrame rate : 11.719 FPS (4096 SPF)Bit depth : 16 bitsCompression mode : LosslessStream size : 239 MiB (3%)Writing library : libFLAC 1.4.0 (UTC 2022-09-09)Language : FrenchDefault : YesForced : NoText #1ID : 3Format : UTF-8Codec ID : S_TEXT/UTF8Codec ID/Info : UTF-8 Plain TextDuration : 1 h 50 minBit rate : 18 b/sFrame rate : 0.081 FPSCount of elements : 533Stream size : 15.1 KiB (0%)Language : EnglishDefault : YesForced : NoText #2ID : 4Format : UTF-8Codec ID : S_TEXT/UTF8Codec ID/Info : UTF-8 Plain TextDuration : 1 h 46 minBit rate : 23 b/sFrame rate : 0.130 FPSCount of elements : 834Stream size : 18.5 KiB (0%)Language : ChineseDefault : NoForced : NoText #3ID : 5Format : UTF-8Codec ID : S_TEXT/UTF8Codec ID/Info : UTF-8 Plain TextDuration : 1 h 47 minBit rate : 33 b/sFrame rate : 0.134 FPSCount of elements : 866Stream size : 26.4 KiB (0%)Language : ItalianDefault : NoForced : NoText #4ID : 6Format : UTF-8Codec ID : S_TEXT/UTF8Codec ID/Info : UTF-8 Plain TextDuration : 1 h 48 minBit rate : 21 b/sFrame rate : 0.082 FPSCount of elements : 532Stream size : 17.3 KiB (0%)Language : DutchDefault : NoForced : NoText #5ID : 7Format : PGSMuxing mode : zlibCodec ID : S_HDMV/PGSCodec ID/Info : Picture based subtitle format used on BDs/HD-DVDsDuration : 1 h 51 minBit rate : 23.9 kb/sFrame rate : 0.316 FPSCount of elements : 2116Stream size : 19.1 MiB (0%)Language : FrenchDefault : YesForced : NoMenu00:00:00.000 : :Générique / Olivier Et Mario00:07:38.375 : :Le Donjon00:21:57.149 : :Première Nuit Avec Ariane00:30:26.783 : :Une Virée à La Campagne00:37:13.940 : :Une Maison Accueillante00:43:34.737 : :"Entrer Dans La Folie Des Gens"00:52:30.189 : :Ariane Au Travail / La Fèlure01:06:16.431 : :Reprise En Main01:10:19.215 : :Le Jeu01:12:18.709 : :"Qui C'est Ce Monsieur Gautier ? "01:21:48.779 : :à Bout De Nerfs01:30:10.780 : :Menaces Et Errance01:37:05.778 : :"Je Veux Plus Te Voir"01:43:42.091 : :Retrouver Ariane01:50:43.428 : :Générique De Fin

Discussion

Comments 0

Post Your Comment

Files in this torrent

FILENAMESIZE
Mistress.1976.1080p.BluRay.FLAC1.0.x264-BYRHD.mkv8.6 GB
RARBG.txt31 B

Alternative Torrents for 'Mistress FRENCH FLAC BYRHD'.

There are no alternative torrents found.