Maria He Doesnt Like It 2009 GERMAN 1080p BluRay X264 DDP5.1-PTer

Torrent Details

Maria He Doesnt Like It<span style=color:#777> 2009</span> GERMAN 1080p BluRay x264 DDP5.1-PTerMaria He Doesnt Like It<span style=color:#777> 2009</span> GERMAN 1080p BluRay x264 DDP5.1-PTer

NAME
Maria He Doesnt Like It 2009 GERMAN 1080p BluRay x264 DDP5.1-PTer.torrent
CATEGORY
Movies
INFOHASH
be20d7eb03000df75efca2c0a9fac45b927f52d8
SIZE
9.7 GB in 2 files
ADDED
Uploaded on 13-11-2022 by our crawler pet called "Spidey".
SWARM
0 seeders & 0 peers
RATING
No votes yet.

Please login to vote for this torrent.


Description

帖子完整标题:小镇异国情 Maria.He.Doesnt.Like.It.2009.GERMAN.1080p.BluRay.x264.DDP5.1-PTer 9.67GB◎标  题 小镇异国情◎译  名 到坎勃贝萝去提亲(台) / 我意大利家人的故事 / Maria / He Doesn't Like It / Wedding Fever in Campobello◎片  名 Maria, ihm schmeckt's nicht◎年  代 2009◎产  地 意大利 / 德国◎类  别 喜剧◎语  言 德语 / 意大利语◎上映日期 2009-08-06◎IMDb评分 5.9/10 (2186人评价)◎IMDb链接 https://www.imdb.com/title/tt1339122/◎豆瓣评分 7.3/10 (1063人评价)◎豆瓣链接 https://movie.douban.com/subject/4018284/◎片  长 96 分钟◎导  演 尼尔·莉娜·福尔马尔 Neele Leana Vollmar◎编  剧 Jan Weiler Jan Weiler◎演  员 克里斯蒂安·乌蒙 Christian Ulmen      米娜·唐德 Mina Tander      于尔根·里斯曼 Jürgen Rißmann      Danilo De Summa Danilo De Summa      卢多维卡·莫杜尼奥 Ludovica Modugno      莫丽·考依曼 Maren Kroymann      利诺·班菲 Lino Banfi      赛尔乔·鲁比尼 Sergio Rubini      Jan Weiler Jan Weiler      Gundi Ellert Gundi Ellert      马琳·罗瑟 Marleen Lohse      马西莫·萨尔基耶利 Massimo Sarchielli◎简  介     杨(克里斯蒂安·乌蒙 Christian Ulmen 饰)是一位典型的德国男子,个性古板又拘谨,喜欢一成不变的生活。一次偶然中,杨邂逅了名为莎拉(米娜·唐德 Mina Tander 饰)的女子,莎拉来自于意大利,血统之中饱含了意大利式的奔放与疯狂,就这样,一对性格截然相反的男女相爱决定踏入婚姻的殿堂。   杨见到了莎拉的父亲安东尼奥(利诺·班菲 Lino Banfi 饰),这个固执的老头坚持女儿的婚礼一定要在坎勃贝萝举行,于是,一行人千里迢迢赶到了目的地,谁知道在那里,一连串的麻烦和意外让杨和莎拉的感情出现了裂痕,对一切都感到力不从心的杨甚至开始怀疑,这真的就是他想要的生活吗?VideoID : 1Format : AVCFormat/Info : Advanced Video CodecFormat profile : [email protected]Format settings : CABAC / 4 Ref FramesFormat settings, CABAC : YesFormat settings, Reference frames : 4 framesCodec ID : V_MPEG4/ISO/AVCDuration : 1 h 37 minBit rate : 13.1 Mb/sWidth : 1 920 pixelsHeight : 1 042 pixelsDisplay aspect ratio : 1.85:1Frame rate mode : ConstantFrame rate : 24.000 FPSColor space : YUVChroma subsampling : 4:2:0Bit depth : 8 bitsScan type : ProgressiveBits/(Pixel*Frame) : 0.273Stream size : 8.97 GiB (93%)Writing library : x264 core 163 r3059 b684ebeEncoding settings : cabac=1 / ref=3 / deblock=1:-3:-3 / analyse=0x3:0x113 / me=umh / subme=11 / psy=1 / psy_rd=1.02:0.00 / mixed_ref=1 / me_range=32 / chroma_me=1 / trellis=2 / 8x8dct=1 / cqm=0 / deadzone=21,11 / fast_pskip=0 / chroma_qp_offset=-2 / threads=18 / lookahead_threads=4 / sliced_threads=0 / nr=0 / decimate=0 / interlaced=0 / bluray_compat=0 / constrained_intra=0 / bframes=16 / b_pyramid=2 / b_adapt=2 / b_bias=0 / direct=3 / weightb=1 / open_gop=0 / weightp=2 / keyint=250 / keyint_min=24 / scenecut=40 / intra_refresh=0 / rc_lookahead=250 / rc=crf / mbtree=0 / crf=18.9 / qcomp=0.60 / qpmin=0 / qpmax=69 / qpstep=4 / vbv_maxrate=62500 / vbv_bufsize=78125 / crf_max=0.0 / nal_hrd=none / filler=0 / ip_ratio=1.30 / pb_ratio=1.20 / aq=3:0.80Language : GermanDefault : YesForced : NoColor range : LimitedColor primaries : BT.709Matrix coefficients : BT.709AudioID : 2Format : E-AC-3Format/Info : Enhanced AC-3Commercial name : Dolby Digital PlusCodec ID : A_EAC3Duration : 1 h 37 minBit rate mode : ConstantBit rate : 1 024 kb/sChannel(s) : 6 channelsChannel layout : L R C LFE Ls RsSampling rate : 48.0 kHzFrame rate : 31.250 FPS (1536 SPF)Compression mode : LossyStream size : 717 MiB (7%)Language : GermanService kind : Complete MainDefault : YesForced : NoText #1ID : 3Format : UTF-8Codec ID : S_TEXT/UTF8Codec ID/Info : UTF-8 Plain TextDuration : 1 h 29 minBit rate : 38 b/sFrame rate : 0.103 FPSCount of elements : 556Stream size : 25.3 KiB (0%)Language : EnglishDefault : NoForced : NoText #2ID : 4Format : UTF-8Codec ID : S_TEXT/UTF8Codec ID/Info : UTF-8 Plain TextDuration : 1 h 29 minBit rate : 48 b/sFrame rate : 0.197 FPSCount of elements : 1063Stream size : 31.7 KiB (0%)Title : Simplified ChineseLanguage : ChineseDefault : NoForced : NoText #3ID : 5Format : UTF-8Codec ID : S_TEXT/UTF8Codec ID/Info : UTF-8 Plain TextDuration : 1 h 29 minBit rate : 48 b/sFrame rate : 0.197 FPSCount of elements : 1063Stream size : 31.7 KiB (0%)Title : Traditional ChineseLanguage : ChineseDefault : NoForced : NoMenu00:00:00.000 : en:Chapter 100:04:46.833 : en:Chapter 200:09:44.833 : en:Chapter 300:13:48.458 : en:Chapter 400:17:33.042 : en:Chapter 500:22:34.667 : en:Chapter 600:27:05.208 : en:Chapter 700:32:32.083 : en:Chapter 800:37:49.625 : en:Chapter 900:43:47.750 : en:Chapter 1000:50:40.333 : en:Chapter 1100:55:46.500 : en:Chapter 1201:00:57.375 : en:Chapter 1301:06:13.750 : en:Chapter 1401:09:57.292 : en:Chapter 1501:14:57.000 : en:Chapter 1601:17:58.958 : en:Chapter 1701:22:44.917 : en:Chapter 1801:27:34.792 : en:Chapter 1901:31:14.958 : en:Chapter 2001:37:54.042 : en:Chapter 21

Discussion

Comments 0

Post Your Comment

Files in this torrent

FILENAMESIZE
Maria.ihm.schmeckt's.nicht.2009.1080p.BluRay.DDP5.1.x264-PTer.mkv9.7 GB
RARBG.txt31 B

Alternative Torrents for 'Maria He Doesnt Like It GERMAN PTer'.

There are no alternative torrents found.