TheMoviesBoss - Kantara - A Legend (2022) 720p 10Bit HEVC AMZN WebRip Hindi (Cam Cleaned) H 265-themoviesboss

Torrent Details


TheMoviesBoss - Kantara - A Legend <span style=color:#777>(2022)</span> 720p 10Bit HEVC AMZN WebRip Hindi (Cam Cleaned) H 265<span style=color:#fc9c6d>-themoviesboss</span>

NAME
TheMoviesBoss - Kantara - A Legend (2022) 720p 10Bit HEVC AMZN WebRip Hindi (Cam Cleaned) H 265-themoviesboss.torrent
CATEGORY
Movies
INFOHASH
26de28c63eaaf3297a06feee6bd8821d9fd403c0
SIZE
1.4 GB in 1 file
ADDED
Uploaded on 24-11-2022 by our crawler pet called "Spidey".
SWARM
205 seeders & 69 peers
RATING
No votes yet.

Please login to vote for this torrent.


Description

Kantara.(2022).720p.10Bit.HEVC.AMZN.WebRip.Hindi.(Cam Cleaned).H.265-themoviesboss

Media Info

Format : Matroska
Format version : Version 4
File size : 1.41 GiB
Duration : 2 h 27 min
Overall bit rate : 1 361 kb/s
Encoded date : UTC 2022-11-24 05:21:10
Writing library : libebml v1.4.2 + libmatroska v1.6.4 / Lavf58.76.100
Video
ID : 1
Format : HEVC
Format/Info : High Efficiency Video Coding
Format profile : Main [email protected]@Main
Codec ID : V_MPEGH/ISO/HEVC
Duration : 2 h 27 min
Bit rate : 1 264 kb/s
Width : 1 718 pixels
Height : 720 pixels
Display aspect ratio : 2.40:1
Frame rate mode : Constant
Frame rate : 24.000 FPS
Color space : YUV
Chroma subsampling : 4:2:0 (Type 0)
Bit depth : 10 bits
Bits/(Pixel*Frame) : 0.043
Stream size : 1.31 GiB (93%)
Default : Yes
Forced : No
Color range : Limited
Color primaries : BT.709
Transfer characteristics : BT.709
Matrix coefficients : BT.709

Audio
ID : 2
Format : AAC LC
Format/Info : Advanced Audio Codec Low Complexity
Codec ID : A_AAC-2
Duration : 2 h 27 min
Bit rate : 93.4 kb/s
Channel(s) : 2 channels
Channel layout : L R
Sampling rate : 48.0 kHz
Frame rate : 46.875 FPS (1024 SPF)
Compression mode : Lossy
Delay relative to video : -21 ms
Stream size : 98.8 MiB (7%)
Title : themoviesboss
Language : Hindi
Default : No
Forced : No

Text #1
ID : 3
Format : UTF-8
Codec ID : S_TEXT/UTF8
Codec ID/Info : UTF-8 Plain Text
Duration : 30 s 200 ms
Bit rate : 42 b/s
Frame rate : 0.033 FPS
Count of elements : 1
Stream size : 160 Bytes (0%)
Title : TheMoviesBoss
Language : English
Default : Yes
Forced : Yes

Text #2
ID : 4
Format : UTF-8
Codec ID : S_TEXT/UTF8
Codec ID/Info : UTF-8 Plain Text
Duration : 2 h 25 min
Bit rate : 69 b/s
Frame rate : 0.252 FPS
Count of elements : 2200
Stream size : 74.0 KiB (0%)
Title : themoviesboss[Full]
Language : English
Default : No
Forced : No

Screenshots:











Discussion

Comments 0

Post Your Comment

Files in this torrent

FILENAMESIZE
TheMoviesBoss - Kantara.-.A.Legend.(2022).720p.10Bit.HEVC.AMZN.WebRip.Hindi.(Cam Cleaned).H.265-themoviesboss.mkv1.4 GB

Alternative Torrents for 'TheMoviesBoss Kantara Legend Bit Hindi Cam Cleaned'.

There are no alternative torrents found.