Cream - Collection [24-bit Hi-Res] (1966-1972) FLAC

Torrent Details


Cream - Collection [24-bit Hi-Res] (1966-1972) FLAC

NAME
Cream - Collection [24-bit Hi-Res] (1966-1972) FLAC.torrent
CATEGORY
Music
INFOHASH
e32c6596b61b621e50564772ff85a6f59ff661da
SIZE
6.9 GB in 60 files
ADDED
Uploaded on 06-01-2023 by our crawler pet called "Spidey".
SWARM
0 seeders & 0 peers
RATING
No votes yet.

Please login to vote for this torrent.


Description

Название: Collection

Исполнитель: Cream

Год: 1966-1972

Жанр: Psychedelic-Rock, Acid-Rock, Blues-Rock, Hard-Rock



Продолжительность: 04:32:27

Формат/Кодек: FLAC (tracks)

Разрядность: 24 Bit/96-192 kHz







Официальный сайт

Альбомы

(1966) Cream - Fresh Cream [24Bit-96kHz]

(1967) Cream - Disraeli Gears [24Bit-96kHz]

(1968) Cream - Wheels Of Fire [24Bit-96kHz]

(1969) Cream - Goodbye [24Bit-96kHz]

(1970) Cream - Live Cream [24Bit-192kHz]

(1972) Cream - Live Cream Volume 2 [24Bit-96kHz]



Трек-лист

(1966) Cream - Fresh Cream [24Bit-96kHz]: (00:41:08)



01. I Feel Free

02. N.S.U.

03. Sleepy Time Time

04. Dreaming

05. Sweet Wine

06. Spoonful

07. Cat's Squirrel

08. Four Until Late

09. Rollin' And Tumblin'

10. I'm So Glad

11. Toad





(1967) Cream - Disraeli Gears [24Bit-96kHz]: (00:33:37)



01. Strange Brew

02. Sunshine Of Your Love

03. World Of Pain

04. Dance The Night Away

05. Blue Condition

06. Tales Of Brave Ulysses

07. SWLABR

08. We're Going Wrong

09. Outside Woman Blues

10. Take It Back

11. Mother's Lament





(1968) Cream - Wheels Of Fire [24Bit-96kHz]: (01:23:46)



01. White Room

02. Sitting On Top Of The World

03. Passing The Time

04. As You Said

05. Pressed Rat And Warthog

06. Politician

07. Those Were The Days

08. Born Under A Bad Sign

09. Deserted Cities Of The Heart

10. Anyone For Tennis

11. Crossroads (Live)

12. Spoonful (Live)

13. Traintime (Live)

14. Toad (Live)





(1969) Cream - Goodbye [24Bit-96kHz]: (00:30:43)



01. I'm So Glad (Live)

02. Politician (Live)

03. Sitting On Top Of The World (Live At The Forum, Los Angeles / 1968)

04. Badge

05. Doing That Scrapyard Thing

06. What A Bringdown





(1970) Cream - Live Cream [24Bit-192kHz]: (00:41:58)



01. N.S.U. (Live At Winterland, San Francisco / 1968)

02. Sleepy Time Time (Live At Winterland, San Francisco / 1968)

03. Sweet Wine (Live At Winterland, San Francisco / 1968)

04. Rollin' And Tumblin' (Live At Fillmore West, Los Angeles / 1968)

05. Lawdy Mama (Version 2)





(1972) Cream - Live Cream Volume 2 [24Bit-96kHz]: (00:41:15)



01. Deserted Cities Of The Heart (Live)

02. White Room (Live)

03. Politician (Live)

04. Tales Of Brave Ulysses (Live)

05. Sunshine Of Your Love (Live)

06. Steppin' Out (Live)



DRM

foobar2000 1.5.5 / Замер динамического диапазона (DR) 1.1.1

-------------------------------------------------------------------------------

Анализ: Cream / Fresh Cream

--------------------------------------------------------------------------------



DR Пики RMS Продолжительность трека

--------------------------------------------------------------------------------

DR8 -1.67 дБ -13.43 дБ 2:54 01-I Feel Free

DR9 -0.64 дБ -12.80 дБ 2:48 02-N.S.U.

DR10 -0.37 дБ -13.82 дБ 4:23 03-Sleepy Time Time

DR9 -0.58 дБ -12.37 дБ 2:01 04-Dreaming

DR9 -0.33 дБ -12.64 дБ 3:21 05-Sweet Wine

DR10 -1.10 дБ -13.96 дБ 6:31 06-Spoonful

DR9 -0.94 дБ -12.04 дБ 3:08 07-Cat's Squirrel

DR11 -0.37 дБ -13.34 дБ 2:10 08-Four Until Late

DR9 -0.37 дБ -11.07 дБ 4:44 09-Rollin' And Tumblin'

DR7 -2.56 дБ -11.33 дБ 3:59 10-I'm So Glad

DR11 -0.50 дБ -15.78 дБ 5:09 11-Toad

--------------------------------------------------------------------------------



Количество треков: 11

Реальные значения DR: DR9



Частота: 96000 Гц

Каналов: 2

Разрядность: 24

Битрейт: 3080 кбит/с

Кодек: FLAC

================================================================================



--------------------------------------------------------------------------------

Анализ: Cream / Disraeli Gears

--------------------------------------------------------------------------------



DR Пики RMS Продолжительность трека

--------------------------------------------------------------------------------

DR12 -0.33 дБ -13.41 дБ 2:50 01-Strange Brew

DR11 -0.34 дБ -12.45 дБ 4:13 02-Sunshine Of Your Love

DR12 -0.37 дБ -14.29 дБ 3:06 03-World Of Pain

DR10 -0.36 дБ -13.60 дБ 3:37 04-Dance The Night Away

DR11 -0.36 дБ -12.78 дБ 3:33 05-Blue Condition

DR11 -0.32 дБ -12.92 дБ 2:50 06-Tales Of Brave Ulysses

DR10 -0.33 дБ -12.37 дБ 2:34 07-SWLABR

DR11 -0.37 дБ -16.15 дБ 3:30 08-We're Going Wrong

DR11 -0.36 дБ -13.06 дБ 2:28 09-Outside Woman Blues

DR12 -0.35 дБ -13.41 дБ 3:09 10-Take It Back

DR11 -2.59 дБ -17.91 дБ 1:47 11-Mother's Lament

--------------------------------------------------------------------------------



Количество треков: 11

Реальные значения DR: DR11



Частота: 96000 Гц

Каналов: 2

Разрядность: 24

Битрейт: 2678 кбит/с

Кодек: FLAC

================================================================================



--------------------------------------------------------------------------------

Анализ: Cream / Wheels Of Fire

--------------------------------------------------------------------------------



DR Пики RMS Продолжительность трека

--------------------------------------------------------------------------------

DR10 -0.35 дБ -12.39 дБ 5:03 01-White Room

DR9 -0.31 дБ -11.17 дБ 5:01 02-Sitting On Top Of The World

DR9 -0.32 дБ -12.81 дБ 4:37 03-Passing The Time

DR10 -0.30 дБ -12.22 дБ 4:25 04-As You Said

DR10 -0.20 дБ -11.60 дБ 3:18 05-Pressed Rat And Warthog

DR10 -0.34 дБ -11.33 дБ 4:17 06-Politician

DR10 -0.37 дБ -12.72 дБ 2:57 07-Those Were The Days

DR11 -0.23 дБ -12.40 дБ 3:14 08-Born Under A Bad Sign

DR9 -0.25 дБ -11.51 дБ 3:41 09-Deserted Cities Of The Heart

DR10 -0.37 дБ -13.50 дБ 2:42 10-Anyone For Tennis

DR9 -0.34 дБ -10.73 дБ 4:20 11-Crossroads (Live)

DR9 -0.32 дБ -10.90 дБ 16:51 12-Spoonful (Live)

DR11 -0.98 дБ -15.36 дБ 7:04 13-Traintime (Live)

DR11 -0.31 дБ -14.56 дБ 16:16 14-Toad (Live)

--------------------------------------------------------------------------------



Количество треков: 14

Реальные значения DR: DR10



Частота: 96000 Гц

Каналов: 2

Разрядность: 24

Битрейт: 3246 кбит/с

Кодек: FLAC

================================================================================



--------------------------------------------------------------------------------

Анализ: Cream / Goodbye

--------------------------------------------------------------------------------



DR Пики RMS Продолжительность трека

--------------------------------------------------------------------------------

DR10 -0.35 дБ -12.08 дБ 9:12 01-I'm So Glad (Live)

DR11 -0.37 дБ -12.71 дБ 6:20 02-Politician (Live)

DR11 -0.37 дБ -13.58 дБ 5:07 03-Sitting On Top Of The World (Live At The Forum, Los Angeles / 1968)

DR11 -0.37 дБ -13.23 дБ 2:48 04-Badge

DR10 -0.36 дБ -12.96 дБ 3:19 05-Doing That Scrapyard Thing

DR11 -0.35 дБ -12.52 дБ 3:57 06-What A Bringdown

--------------------------------------------------------------------------------



Количество треков: 6

Реальные значения DR: DR11



Частота: 96000 Гц

Каналов: 2

Разрядность: 24

Битрейт: 3266 кбит/с

Кодек: FLAC

================================================================================



--------------------------------------------------------------------------------

Анализ: Cream / Live Cream

--------------------------------------------------------------------------------



DR Пики RMS Продолжительность трека

--------------------------------------------------------------------------------

DR11 -0.20 дБ -12.33 дБ 10:15 01-N.S.U. (Live At Winterland, San Francisco / 1968)

DR10 -0.20 дБ -12.59 дБ 6:53 02-Sleepy Time Time (Live At Winterland, San Francisco / 1968)

DR10 -0.20 дБ -12.63 дБ 15:18 03-Sweet Wine (Live At Winterland, San Francisco / 1968)

DR11 -0.20 дБ -13.14 дБ 6:45 04-Rollin' And Tumblin' (Live At Fillmore West, Los Angeles / 1968)

DR10 -0.20 дБ -11.62 дБ 2:47 05-Lawdy Mama (Version 2)

--------------------------------------------------------------------------------



Количество треков: 5

Реальные значения DR: DR11



Частота: 192000 Гц

Каналов: 2

Разрядность: 24

Битрейт: 6267 кбит/с

Кодек: FLAC

================================================================================



--------------------------------------------------------------------------------

Анализ: Cream / Live Cream Volume 2

--------------------------------------------------------------------------------



DR Пики RMS Продолжительность трека

--------------------------------------------------------------------------------

DR12 -0.55 дБ -15.87 дБ 4:34 01-Deserted Cities Of The Heart (Live)

DR13 -0.36 дБ -14.88 дБ 5:41 02-White Room (Live)

DR11 -0.34 дБ -13.27 дБ 5:09 03-Politician (Live)

DR12 -0.37 дБ -14.47 дБ 4:47 04-Tales Of Brave Ulysses (Live)

DR13 -0.37 дБ -14.10 дБ 7:25 05-Sunshine Of Your Love (Live)

DR13 -0.77 дБ -16.51 дБ 13:39 06-Steppin' Out (Live)

--------------------------------------------------------------------------------



Количество треков: 6

Реальные значения DR: DR12



Частота: 96000 Гц

Каналов: 2

Разрядность: 24

Битрейт: 3033 кбит/с

Кодек: FLAC

================================================================================







Время раздачи: 24/7 (минимум до появления первых 3-5 скачавших, на раздачи не возвращаюсь)



Первое правило участника файлообмена: "Скачал сам - дай скачать другому!"



Discussion

Comments 0

Post Your Comment

Files in this torrent

FILENAMESIZE
(1966) Cream - Fresh Cream [24Bit-96kHz]/01. I Feel Free.flac64.6 MB
(1966) Cream - Fresh Cream [24Bit-96kHz]/02. N.S.U.flac60 MB
(1966) Cream - Fresh Cream [24Bit-96kHz]/03. Sleepy Time Time.flac96.2 MB
(1966) Cream - Fresh Cream [24Bit-96kHz]/04. Dreaming.flac44.3 MB
(1966) Cream - Fresh Cream [24Bit-96kHz]/05. Sweet Wine.flac74 MB
(1966) Cream - Fresh Cream [24Bit-96kHz]/06. Spoonful.flac143 MB
(1966) Cream - Fresh Cream [24Bit-96kHz]/07. Cat's Squirrel.flac69.8 MB
(1966) Cream - Fresh Cream [24Bit-96kHz]/08. Four Until Late.flac47.3 MB
(1966) Cream - Fresh Cream [24Bit-96kHz]/09. Rollin' And Tumblin'.flac109.8 MB
(1966) Cream - Fresh Cream [24Bit-96kHz]/10. I'm So Glad.flac89.7 MB
(1966) Cream - Fresh Cream [24Bit-96kHz]/11. Toad.flac113.5 MB
(1966) Cream - Fresh Cream [24Bit-96kHz]/cover.jpg83 KB
(1967) Cream - Disraeli Gears [24Bit-96kHz]/01. Strange Brew.flac63.6 MB
(1967) Cream - Disraeli Gears [24Bit-96kHz]/02. Sunshine Of Your Love.flac95.1 MB
(1967) Cream - Disraeli Gears [24Bit-96kHz]/03. World Of Pain.flac69 MB
(1967) Cream - Disraeli Gears [24Bit-96kHz]/04. Dance The Night Away.flac82.6 MB
(1967) Cream - Disraeli Gears [24Bit-96kHz]/05. Blue Condition.flac80.4 MB
(1967) Cream - Disraeli Gears [24Bit-96kHz]/06. Tales Of Brave Ulysses.flac63.2 MB
(1967) Cream - Disraeli Gears [24Bit-96kHz]/07. SWLABR.flac58.4 MB
(1967) Cream - Disraeli Gears [24Bit-96kHz]/08. We're Going Wrong.flac76.5 MB
(1967) Cream - Disraeli Gears [24Bit-96kHz]/09. Outside Woman Blues.flac55 MB
(1967) Cream - Disraeli Gears [24Bit-96kHz]/10. Take It Back.flac71.1 MB
(1967) Cream - Disraeli Gears [24Bit-96kHz]/11. Mother's Lament.flac34.3 MB
(1967) Cream - Disraeli Gears [24Bit-96kHz]/cover.jpg184.3 KB
(1968) Cream - Wheels Of Fire [24Bit-96kHz]/01. White Room.flac118.1 MB
(1968) Cream - Wheels Of Fire [24Bit-96kHz]/02. Sitting On Top Of The World.flac119 MB
(1968) Cream - Wheels Of Fire [24Bit-96kHz]/03. Passing The Time.flac105.8 MB
(1968) Cream - Wheels Of Fire [24Bit-96kHz]/04. As You Said.flac104.9 MB
(1968) Cream - Wheels Of Fire [24Bit-96kHz]/05. Pressed Rat And Warthog.flac75.5 MB
(1968) Cream - Wheels Of Fire [24Bit-96kHz]/06. Politician.flac99 MB
(1968) Cream - Wheels Of Fire [24Bit-96kHz]/07. Those Were The Days.flac69 MB
(1968) Cream - Wheels Of Fire [24Bit-96kHz]/08. Born Under A Bad Sign.flac76.8 MB
(1968) Cream - Wheels Of Fire [24Bit-96kHz]/09. Deserted Cities Of The Heart.flac87.9 MB
(1968) Cream - Wheels Of Fire [24Bit-96kHz]/10. Anyone For Tennis.flac61.5 MB
(1968) Cream - Wheels Of Fire [24Bit-96kHz]/11. Crossroads.flac101.5 MB
(1968) Cream - Wheels Of Fire [24Bit-96kHz]/12. Spoonful.flac393.3 MB
(1968) Cream - Wheels Of Fire [24Bit-96kHz]/13. Traintime.flac163.2 MB
(1968) Cream - Wheels Of Fire [24Bit-96kHz]/14. Toad.flac378 MB
(1968) Cream - Wheels Of Fire [24Bit-96kHz]/cover.jpg114.8 KB
(1969) Cream - Goodbye [24Bit-96kHz]/01. I'm So Glad.flac211.3 MB
(1969) Cream - Goodbye [24Bit-96kHz]/02. Politician.flac144.2 MB
(1969) Cream - Goodbye [24Bit-96kHz]/03. Sitting On Top Of The World.flac114.8 MB
(1969) Cream - Goodbye [24Bit-96kHz]/04. Badge.flac62.6 MB
(1969) Cream - Goodbye [24Bit-96kHz]/05. Doing That Scrapyard Thing.flac75.6 MB
(1969) Cream - Goodbye [24Bit-96kHz]/06. What A Bringdown.flac92.5 MB
(1969) Cream - Goodbye [24Bit-96kHz]/cover.jpg51.1 KB
(1970) Cream - Live Cream [24Bit-192kHz]/01. N.S.U.flac453.8 MB
(1970) Cream - Live Cream [24Bit-192kHz]/02. Sleepy Time Time.flac302.8 MB
(1970) Cream - Live Cream [24Bit-192kHz]/03. Sweet Wine.flac680.7 MB
(1970) Cream - Live Cream [24Bit-192kHz]/04. Rollin' And Tumblin'.flac298.7 MB
(1970) Cream - Live Cream [24Bit-192kHz]/05. Lawdy Mama.flac125 MB
(1970) Cream - Live Cream [24Bit-192kHz]/cover.jpg53.9 KB
(1972) Cream - Live Cream Volume 2 [24Bit-96kHz]/01. Deserted Cities Of The Heart.flac101.5 MB
(1972) Cream - Live Cream Volume 2 [24Bit-96kHz]/02. White Room.flac127.2 MB
(1972) Cream - Live Cream Volume 2 [24Bit-96kHz]/03. Politician.flac115.3 MB
(1972) Cream - Live Cream Volume 2 [24Bit-96kHz]/04. Tales Of Brave Ulysses.flac107.4 MB
(1972) Cream - Live Cream Volume 2 [24Bit-96kHz]/05. Sunshine Of Your Love.flac168.5 MB
(1972) Cream - Live Cream Volume 2 [24Bit-96kHz]/06. Steppin' Out.flac296.4 MB
(1972) Cream - Live Cream Volume 2 [24Bit-96kHz]/cover.jpg59.6 KB
cover.jpg200.7 KB

Alternative Torrents for 'Cream Collection bit HiRes FLAC'.

There are no alternative torrents found.