Harry Potter E Il Calice Di Fuoco (2005) BDRip 2160p HEVC HDR ENG DTS-X 7 1 ITA ENG AC3 PirateMKV

Torrent Details


Harry Potter e il Calice di Fuoco (2005) BDRip 2160p HEVC HDR ENG DTS-X 7 1 ITA ENG AC3 PirateMKV

NAME
Harry Potter e il Calice di Fuoco (2005) BDRip 2160p HEVC HDR ENG DTS-X 7 1 ITA ENG AC3 PirateMKV.torrent
CATEGORY
Movies
INFOHASH
b8bd7b8a703fb9618d11ee91d68ac85596c72de6
SIZE
22.6 GB in 1 file
ADDED
Uploaded on 31-01-2018 by our crawler pet called "Spidey".
SWARM
0 seeders & 0 peers
RATING
No votes yet.

Please login to vote for this torrent.


Description







[size=24pt]Harry Potter e il Calice di Fuoco [/size]





Titolo: Harry Potter and the Goblet of Fire
Nazione: UK, USA
Anno: 2005
Genere: Adventure, Family, Fantasy
Durata: 157 min
Regia: Mike Newell
Voti: IMDb (7.7/10), Rotten Tomatoes (88%), Metacritic (81/100)
Cast: Eric Sykes, Timothy Spall, David Tennant, Daniel Radcliffe



Harry Potter, al suo quarto anno, viene selezionato dal Calice di Fuoco per rappresentare Hogwarts al torneo di Triwizard, in cui le varie scuole si sfidano in gare di magia. Durante il torneo, perĂ², si presenta Lord Voldemort.








General
Unique ID : 339274229097159716909336256023339940050 (0xFF3DD6F7BD6CD1F5C1C72480855738D2)
Complete name : C:UsersAdministratorDownloadsNewsHarry Potter Il Calice Fuoco UHDHarry Potter e il Calice di Fuoco (2005) BDRip 2160p HEVC HDR ENG DTS-X 7.1 ITA ENG AC3 PirateMKV.mkv
Format : Matroska
Format version : Version 4 / Version 2
File size : 22.6 GiB
Duration : 2 h 37 min
Overall bit rate : 20.6 Mb/s
Movie name : Harry Potter e il Calice di Fuoco (2005) - PirateMKV
Encoded date : UTC 2018-01-19 15:27:48
Writing application : mkvmerge v19.0.0 ('Brave Captain') 64-bit
Writing library : libebml v1.3.5 + libmatroska v1.4.8 / Lavf58.0.102

Video
ID : 1
Format : HEVC
Format/Info : High Efficiency Video Coding
Format profile : Main [email protected]@High
Codec ID : V_MPEGH/ISO/HEVC
Duration : 2 h 37 min
Bit rate : 15.5 Mb/s
Width : 3 840 pixels
Height : 2 160 pixels
Display aspect ratio : 16:9
Frame rate mode : Constant
Frame rate : 23.976 (24000/1001) FPS
Color space : YUV
Chroma subsampling : 4:2:0 (Type 2)
Bit depth : 10 bits
Bits/(Pixel*Frame) : 0.078
Stream size : 17.0 GiB (75%)
Writing library : x265 2.5+32-0bc372b7ca78:[Windows][GCC 7.1.0][64 bit] 10bit
Encoding settings : cpuid=1173503 / frame-threads=3 / numa-pools=8 / wpp / no-pmode / no-pme / no-psnr / no-ssim / log-level=2 / input-csp=1 / input-res=3840x2160 / interlace=0 / total-frames=0 / level-idc=51 / high-tier=1 / uhd-bd=1 / ref=5 / no-allow-non-conformance / repeat-headers / annexb / aud / hrd / info / hash=0 / no-temporal-layers / no-open-gop / min-keyint=1 / keyint=24 / bframes=8 / b-adapt=2 / b-pyramid / bframe-bias=0 / rc-lookahead=40 / lookahead-slices=0 / scenecut=40 / no-intra-refresh / ctu=64 / min-cu-size=8 / no-rect / no-amp / max-tu-size=32 / tu-inter-depth=4 / tu-intra-depth=4 / limit-tu=4 / rdoq-level=0 / dynamic-rd=0.00 / no-ssim-rd / signhide / no-tskip / nr-intra=0 / nr-inter=0 / no-constrained-intra / no-strong-intra-smoothing / max-merge=3 / limit-refs=3 / limit-modes / me=2 / subme=5 / merange=57 / temporal-mvp / weightp / weightb / no-analyze-src-pics / deblock=-3:-3 / no-sao / no-sao-non-deblock / rd=4 / no-early-skip / rskip / fast-intra / no-tskip-fast / no-cu-lossless / b-intra / no-splitrd-skip / rdpenalty=0 / psy-rd=2.00 / psy-rdoq=0.00 / no-rd-refine / analysis-reuse-mode=0 / no-lossless / cbqpoffs=-3 / crqpoffs=-3 / rc=crf / crf=19.5 / qcomp=0.70 / qpstep=4 / stats-write=0 / stats-read=0 / vbv-maxrate=160000 / vbv-bufsize=160000 / vbv-init=0.9 / crf-max=0.0 / crf-min=0.0 / ipratio=1.40 / pbratio=1.30 / aq-mode=3 / aq-strength=0.70 / no-cutree / zone-count=0 / no-strict-cbr / qg-size=32 / no-rc-grain / qpmax=69 / qpmin=0 / no-const-vbv / sar=1 / overscan=0 / videoformat=5 / range=0 / colorprim=9 / transfer=16 / colormatrix=9 / chromaloc=1 / chromaloc-top=2 / chromaloc-bottom=2 / display-window=0 / master-display=G(13250,34500)B(7500,3000)R(34000,16000)WP(15635,16450)L(40000000,50) / max-cll=2848,617 / min-luma=0 / max-luma=1023 / log2-max-poc-lsb=8 / vui-timing-info / vui-hrd-info / slices=1 / opt-qp-pps / opt-ref-list-length-pps / no-multi-pass-opt-rps / scenecut-bias=0.05 / no-opt-cu-delta-qp / no-aq-motion / hdr / hdr-opt / no-dhdr10-opt / analysis-reuse-level=5 / scale-factor=0 / refine-intra=0 / refine-inter=0 / refine-mv=0 / no-limit-sao / ctu-info=0
Language : English
Default : Yes
Forced : No
Color range : Limited
Color primaries : BT.2020
Transfer characteristics : SMPTE ST 2084
Matrix coefficients : BT.2020 non-constant
Mastering display color primaries : R: x=0.680000 y=0.320000, G: x=0.265000 y=0.690000, B: x=0.150000 y=0.060000, White point: x=0.312700 y=0.329000
Mastering display luminance : min: 0.0050 cd/m2, max: 4000.0000 cd/m2
Maximum Content Light Level : 2848 cd/m2
Maximum Frame-Average Light Level : 617 cd/m2

Audio #1
ID : 2
Format : AC-3
Format/Info : Audio Coding 3
Format settings, Endianness : Big
Codec ID : A_AC3
Duration : 2 h 37 min
Bit rate mode : Constant
Bit rate : 448 kb/s
Channel(s) : 6 channels
Channel positions : Front: L C R, Side: L R, LFE
Sampling rate : 48.0 kHz
Frame rate : 31.250 FPS (1536 SPF)
Bit depth : 16 bits
Compression mode : Lossy
Stream size : 503 MiB (2%)
Title : AC3 5.1
Language : Italian
Service kind : Complete Main
Default : Yes
Forced : No

Audio #2
ID : 3
Format : DTS
Format/Info : Digital Theater Systems
Format profile : X / MA / Core
Mode : 16
Format settings, Endianness : Big
Codec ID : A_DTS
Duration : 2 h 37 min
Bit rate mode : Variable / Variable / Constant
Bit rate : 4 051 kb/s / 4 051 kb/s / 1 509 kb/s
Channel(s) : Object Based / 8 channels / 6 channels
Channel positions : Object Based / Front: L C R, Side: L R, Back: L R, LFE / Front: L C R, Side: L R, LFE
Sampling rate : / 48.0 kHz / 48.0 kHz
Frame rate : 93.750 FPS (512 SPF)
Bit depth : / 24 bits / 24 bits
Compression mode : / Lossless / Lossy
Stream size : 4.45 GiB (20%)
Title : DTS-X 7.1
Language : English
Default : No
Forced : No

Audio #3
ID : 4
Format : AC-3
Format/Info : Audio Coding 3
Format settings, Endianness : Big
Codec ID : A_AC3
Duration : 2 h 37 min
Bit rate mode : Constant
Bit rate : 640 kb/s
Channel(s) : 6 channels
Channel positions : Front: L C R, Side: L R, LFE
Sampling rate : 48.0 kHz
Frame rate : 31.250 FPS (1536 SPF)
Bit depth : 16 bits
Compression mode : Lossy
Stream size : 719 MiB (3%)
Title : AC3 5.1
Language : English
Service kind : Complete Main
Default : No
Forced : No

Text #1
ID : 5
Format : UTF-8
Codec ID : S_TEXT/UTF8
Codec ID/Info : UTF-8 Plain Text
Duration : 40 min 27 s
Bit rate : 0 b/s
Count of elements : 6
Stream size : 190 Bytes (0%)
Title : Forced
Language : Italian
Default : Yes
Forced : Yes

Text #2
ID : 6
Format : UTF-8
Codec ID : S_TEXT/UTF8
Codec ID/Info : UTF-8 Plain Text
Duration : 2 h 36 min
Bit rate : 50 b/s
Count of elements : 1808
Stream size : 58.5 KiB (0%)
Title : SDH
Language : Italian
Default : No
Forced : No

Text #3
ID : 7
Format : UTF-8
Codec ID : S_TEXT/UTF8
Codec ID/Info : UTF-8 Plain Text
Duration : 2 h 36 min
Bit rate : 49 b/s
Count of elements : 1804
Stream size : 56.7 KiB (0%)
Title : SDH
Language : English
Default : No
Forced : No

Menu
00:00:00.000 : en:00:00:00.000
00:03:46.560 : en:00:03:46.560
00:06:09.369 : en:00:06:09.369
00:09:50.089 : en:00:09:50.089
00:13:45.324 : en:00:13:45.324
00:19:14.987 : en:00:19:14.987
00:23:09.388 : en:00:23:09.388
00:29:01.573 : en:00:29:01.573
00:36:26.684 : en:00:36:26.684
00:39:05.009 : en:00:39:05.009
00:41:32.490 : en:00:41:32.490
00:45:36.400 : en:00:45:36.400
00:49:07.778 : en:00:49:07.778
00:54:06.243 : en:00:54:06.243
01:02:46.596 : en:01:02:46.596
01:09:12.982 : en:01:09:12.982
01:14:43.979 : en:01:14:43.979
01:22:27.609 : en:01:22:27.609
01:30:34.763 : en:01:30:34.763
01:39:29.297 : en:01:39:29.297
01:42:42.490 : en:01:42:42.490
01:47:22.936 : en:01:47:22.936
01:50:19.279 : en:01:50:19.279
01:58:54.461 : en:01:58:54.461
02:02:02.315 : en:02:02:02.315
02:06:36.589 : en:02:06:36.589
02:10:01.627 : en:02:10:01.627
02:17:38.083 : en:02:17:38.083
02:23:48.620 : en:02:23:48.620



ORARIO: SEMPRE ATTIVO
BANDA: 300KB
Credits PirateMKV

Discussion

Comments 0

Post Your Comment

Files in this torrent

FILENAMESIZE
Harry Potter e il Calice di Fuoco (2005) BDRip 2160p HEVC HDR ENG DTS-X 7.1 ITA ENG AC3 PirateMKV.mkv22.6 GB

Alternative Torrents for 'Harry Potter il Calice di Fuoco HEVC HDR ENG DTS ENG PirateMKV'.

TORRENT NAMEADDEDSIZESEEDSPEERSHEALTH
1/31/201822.6 GB00