【高清影视之家发布 】了不起的盖茨比[中文字幕] The Great Gatsby 1974 BluRay 1080p TrueHD 5 1 X264-DreamHD

Torrent Details


【高清影视之家发布 】了不起的盖茨比[中文字幕] The Great Gatsby<span style=color:#777> 1974</span> BluRay 1080p TrueHD 5 1 x264<span style=color:#fc9c6d>-DreamHD</span>

NAME
【高清影视之家发布 】了不起的盖茨比[中文字幕] The Great Gatsby 1974 BluRay 1080p TrueHD 5 1 x264-DreamHD.torrent
CATEGORY
Movies
INFOHASH
558d4793a6a3f85199c29cb1fc4bde9d3705b0a8
SIZE
24.8 GB in 5 files
ADDED
Uploaded on 21-12-2023 by our crawler pet called "Spidey".
SWARM
0 seeders & 2 peers
RATING
No votes yet.

Please login to vote for this torrent.


Description

完整标题:了不起的盖茨比[中文字幕].The.Great.Gatsby.1974.BluRay.1080p.TrueHD.5.1.x264-DreamHD 24.82GB◎标  题 了不起的盖茨比◎译  名 大亨小传 / 伟大的盖茨比 / 了不起的盖兹比◎片  名 The Great Gatsby◎年  代 1974◎产  地 美国◎类  别 剧情 / 爱情◎语  言 英语◎上映日期 1974-03-29◎IMDb评分 6.4/10 (25792人评价)◎IMDb链接 https://www.imdb.com/title/tt0071577/◎豆瓣评分 8.1/10 (26199人评价)◎豆瓣链接 https://movie.douban.com/subject/1297239/◎片  长 144分钟◎导  演 杰克·克莱顿 Jack Clayton◎编  剧 F. 斯科特·菲茨杰拉德 F. Scott Fitzgerald      弗朗西斯·福特·科波拉 Francis Ford Coppola◎演  员 罗伯特·雷德福 Robert Redford      米娅·法罗 Mia Farrow      布鲁斯·邓恩 Bruce Dern      凯伦·布莱克 Karen Black      斯科特·威尔森 Scott Wilson      萨姆·沃特森 Sam Waterston      洛伊丝·奇利斯 Lois Chiles      霍华德·达·席尔瓦 Howard Da Silva      罗伯茨·布洛瑟姆 Roberts Blossom      爱德华·赫曼 Edward Herrmann      埃利奥特·沙利文 Elliott Sullivan      阿瑟·休斯 Arthur Hughes      凯瑟琳·利·斯科特 Kathryn Leigh Scott      贝丝·波特 Beth Porter      约翰·德夫林 John Devlin      帕齐·肯西特 Patsy Kensit      鲍勃·舍曼 Bob Sherman      莉贾娜·芭芙 Regina Baff      萨米·史密斯 Sammy Smith      布鲁克·亚当斯 Brooke Adams      詹姆斯·伯威克 James Berwick      富兰克林·科弗 Franklin Cover      汤姆·伊威尔 Tom Ewell      邓肯·英奇斯 Duncan Inches      尼克·卢卡斯 Nick Lucas      杰瑞·梅尔 Jerry Mayer      文森特·斯卡维利 Vincent Schiavelli      米尔德丽德·谢伊 Mildred Shay      查尔斯·西尔文 Charles Silvern◎简  介    汤姆(布鲁斯•邓恩 Bruce Dern 饰)和黛西(米亚•法罗 Mia Farrow 饰)的婚姻并不幸福,因为汤姆是一个花花公子,经常出去鬼混。汤姆还经常和与他们相邻的黛西的舅舅尼克一起出席舞会,寻欢作乐。尼克的邻居盖茨比是个神秘的有钱人,他经常邀请尼克参加宴会,两人很快相熟。相熟后,盖茨比(罗伯特•雷德福 Robert Redford 饰)邀请尼克带着他的侄女黛西来他家作客。此时,黛西认出了盖茨比。原来盖茨比是黛西5年前的恋人,只因当年盖茨比只是一个穷小子,为了改变命运而出国拼搏,黛西正是在这个时候与汤姆结了婚。两人很快旧情复燃。   一次宴会,黛西又和汤姆吵翻了,借酒消愁的她酒后和盖茨比一起开车回家时不幸撞死了汤姆的情妇。为了昔日的情人,盖茨比决定挺身而出。点击图片可查看大图 软字幕无法在截图上展现,HDR版本/杜比视界版本截图会出现颜色异常,请使用支持的设备播放!##### MediaInfo ###### General Unique ID : 65079358190087487055401934655485903881 (0x30F5D4169BCA774CF4EECC256B040409) Complete name : The.Great.Gatsby.1974.BluRay.1080p.TrueHD.5.1.x264-DreamHD.mkv Duration : 2 h 23 min Overall bit rate mode : Variable Overall bit rate : 24.8 Mb/s VideoID : 1Format : AVCFormat/Info : Advanced Video CodecFormat profile : [email protected]Format settings : CABAC / 4 Ref FramesFormat settings, CABAC : YesFormat settings, Reference frames : 4 framesCodec ID : V_MPEG4/ISO/AVCDuration : 2 h 23 minBit rate : 21.2 Mb/sWidth : 1 920 pixelsHeight : 1 080 pixelsDisplay aspect ratio : 16:9Frame rate mode : ConstantFrame rate : 23.976 (24000/1001) FPSColor space : YUVChroma subsampling : 4:2:0Bit depth : 8 bitsScan type : ProgressiveBits/(Pixel*Frame) : 0.427Stream size : 21.3 GiB (86%)Writing library : x264 core 157 r2867+150 7e91e0e t_mod_Custom_2 [8-bit@all X86_64]Encoding settings : cabac=1 / ref=4 / deblock=1:-3:-3 / analyse=0x3:0x133 / me=umh / subme=11 / psy=1 / fade_compensate=0.00 / psy_rd=0.95:0.10 / mixed_ref=1 / me_range=64 / chroma_me=1 / trellis=2 / 8x8dct=1 / cqm=0 / deadzone=21,11 / fast_pskip=0 / chroma_qp_offset=-4 / threads=30 / lookahead_threads=7 / sliced_threads=0 / nr=0 / decimate=1 / interlaced=0 / bluray_compat=0 / constrained_intra=0 / fgo=0 / bframes=10 / b_pyramid=2 / b_adapt=2 / b_bias=0 / direct=3 / weightb=1 / open_gop=0 / weightp=2 / keyint=250 / keyint_min=23 / scenecut=40 / intra_refresh=0 / rc=crf / mbtree=0 / crf=20.5000 / qcomp=0.70 / qpmin=0:0:0 / qpmax=69:69:69 / qpstep=4 / ip_ratio=1.30 / pb_ratio=1.20 / aq=3:1.00 / aq-sensitivity=10.00 / aq-factor=1.00:1.00:1.00 / aq2=0 / aq3=0Default : YesForced : NoColor range : LimitedColor primaries : BT.709Matrix coefficients : BT.709Audio #1ID : 2Format : AC-3Format/Info : Audio Coding 3Commercial name : Dolby DigitalCodec ID : A_AC3Duration : 2 h 23 minBit rate mode : ConstantBit rate : 640 kb/sChannel(s) : 6 channelsChannel layout : L R C LFE Ls RsSampling rate : 48.0 kHzFrame rate : 31.250 FPS (1536 SPF)Compression mode : LossyStream size : 657 MiB (3%)Language : EnglishService kind : Complete MainDefault : YesForced : NoAudio #2ID : 3Format : MLP FBAFormat/Info : Meridian Lossless Packing FBACommercial name : Dolby TrueHDCodec ID : A_TRUEHDDuration : 2 h 23 minBit rate mode : VariableBit rate : 2 770 kb/sMaximum bit rate : 4 302 kb/sChannel(s) : 6 channelsChannel layout : L R C LFE Ls RsSampling rate : 48.0 kHzFrame rate : 1 200.000 FPS (40 SPF)Compression mode : LosslessStream size : 2.78 GiB (11%)Language : EnglishDefault : NoForced : NoText #1ID : 4Format : PGSMuxing mode : zlibCodec ID : S_HDMV/PGSCodec ID/Info : Picture based subtitle format used on BDs/HD-DVDsDuration : 2 h 17 minBit rate : 21.6 kb/sFrame rate : 0.268 FPSCount of elements : 2207Stream size : 21.2 MiB (0%)Language : ChineseDefault : NoForced : NoText #2ID : 5Format : PGSMuxing mode : zlibCodec ID : S_HDMV/PGSCodec ID/Info : Picture based subtitle format used on BDs/HD-DVDsDuration : 2 h 17 minBit rate : 22.0 kb/sFrame rate : 0.268 FPSCount of elements : 2207Stream size : 21.6 MiB (0%)Language : ChineseDefault : NoForced : NoText #3ID : 6Format : PGSMuxing mode : zlibCodec ID : S_HDMV/PGSCodec ID/Info : Picture based subtitle format used on BDs/HD-DVDsDuration : 2 h 17 minBit rate : 28.4 kb/sFrame rate : 0.296 FPSCount of elements : 2434Stream size : 27.8 MiB (0%)Language : EnglishDefault : NoForced : NoText #4ID : 7Format : PGSMuxing mode : zlibCodec ID : S_HDMV/PGSCodec ID/Info : Picture based subtitle format used on BDs/HD-DVDsDuration : 2 h 22 minBit rate : 30.2 kb/sFrame rate : 0.325 FPSCount of elements : 2776Stream size : 30.7 MiB (0%)Language : EnglishDefault : NoForced : NoText #5ID : 8Format : PGSMuxing mode : zlibCodec ID : S_HDMV/PGSCodec ID/Info : Picture based subtitle format used on BDs/HD-DVDsDuration : 2 h 17 minBit rate : 34.6 kb/sFrame rate : 0.268 FPSCount of elements : 2207Stream size : 34.0 MiB (0%)Language : ChineseDefault : YesForced : NoText #6ID : 9Format : PGSMuxing mode : zlibCodec ID : S_HDMV/PGSCodec ID/Info : Picture based subtitle format used on BDs/HD-DVDsDuration : 2 h 17 minBit rate : 35.0 kb/sFrame rate : 0.268 FPSCount of elements : 2207Stream size : 34.4 MiB (0%)Language : ChineseDefault : NoForced : NoMenu00:00:00.000 : en:Chapter 100:14:19.776 : en:Chapter 200:27:51.211 : en:Chapter 300:39:15.019 : en:Chapter 400:45:07.496 : en:Chapter 500:59:31.359 : en:Chapter 601:09:24.035 : en:Chapter 701:19:33.644 : en:Chapter 801:27:17.816 : en:Chapter 901:38:37.662 : en:Chapter 1001:45:52.680 : en:Chapter 1101:53:09.408 : en:Chapter 1202:01:16.895 : en:Chapter 1302:13:13.110 : en:Chapter 14部分资源为软字幕,移动端推荐播放器:MxPlayer,nPlayer,infuse ,其他播放器请自行尝试。 部分资源为软字幕,电脑端推荐播放器:PotPlayer,完美解码,KMPLAYER,其他播放器请自行尝试。

Discussion

Comments 0

Post Your Comment

Files in this torrent

FILENAMESIZE
The.Great.Gatsby.1974.BluRay.1080p.TrueHD.5.1.x264-DreamHD.mkv24.8 GB
The.Great.Gatsby.1974.BluRay.1080p.TrueHD.5.1.x264-DreamHD.nfo5.5 KB
【更多无水印蓝光原盘请访问 www.HDBTHD.com】【更多无水印蓝光原盘请访问 www.HDBTHD.com】.MP4289.1 KB
【更多无水印蓝光电影请访问 www.HDBTHD.com】【更多无水印蓝光电影请访问 www.HDBTHD.com】.DOC289.1 KB
【更多无水印高清电影请访问 www.HDBTHD.com】【更多无水印高清电影请访问 www.HDBTHD.com】.MKV622 KB

Alternative Torrents for '【高清影视之家发布 】了不起的盖茨比中文字幕 Great Gatsby TrueHD'.

There are no alternative torrents found.