Shanghai Noon (2000) 1080p BluRay X264 Dual Audio [Hindi DD 2 0 - English DD 5.1] - Esub ~ Ranvijay

Torrent Details

Shanghai Noon (2000) 1080p BluRay x264 Dual Audio [Hindi DD 2 0 - English DD 5.1] - Esub ~ Ranvijay

NAME
Shanghai Noon (2000) 1080p BluRay x264 Dual Audio [Hindi DD 2 0 - English DD 5.1] - Esub ~ Ranvijay.torrent
CATEGORY
Movies
INFOHASH
11589ec541bc6bc1454334403ec98ce896f299e5
SIZE
2.3 GB in 1 file
ADDED
Uploaded on 17-02-2018 by our crawler pet called "Spidey".
SWARM
0 seeders & 0 peers
RATING
No votes yet.

Please login to vote for this torrent.


Description





Shanghai Noon (2000) 1080p BluRay x264 Dual Audio [Hindi DD 2.0 - English DD 5.1] - Esub ~ Ranvijay

Thanks To Rohit For Hindi Audio

Format : Matroska
Format version : Version 4 / Version 2
File size : 31.0 MiB
Duration : 1 h 50 min
Overall bit rate : 2 683 kb/s
Movie name : Shanghai Noon (2000) 1080p BluRay x264 Dual Audio [Hindi DD 2.0 - English DD 5.1] - Esub ~ Ranvijay

Video
Duration : 1 h 50 min
Bit rate : 2 233 kb/s
Width : 1 920 pixels
Height : 824 pixels
Display aspect ratio : 2.35:1
Frame rate mode : Constant
Frame rate : 23.976 (24000/1001) FPS
Original frame rate : 23.976 (23976/1000) FPS
Color space : YUV
Chroma subsampling : 4:2:0
Bit depth : 8 bits
Scan type : Progressive
Bits/(Pixel*Frame) : 0.059
Stream size : 25.8 MiB (83%)
Title : ~Ranvijay~
Default : Yes
Forced : No

Audio #1
ID : 2
Format : AC-3
Format/Info : Audio Coding 3
Format settings, Endianness : Big
Codec ID : A_AC3
Duration : 1 h 50 min
Bit rate mode : Constant
Bit rate : 224 kb/s
Channel(s) : 2 channels
Channel positions : Front: L R
Sampling rate : 48.0 kHz
Frame rate : 31.250 FPS (1536 SPF)
Bit depth : 16 bits
Compression mode : Lossy
Delay relative to video : 10 ms
Stream size : 2.59 MiB (8%)
Title : ~Ranvijay~
Language : Hindi
Service kind : Complete Main
Default : Yes
Forced : No

Audio #2
ID : 3
Format : AAC
Format/Info : Advanced Audio Codec
Format profile : LC
Codec ID : A_AAC-2
Duration : 1 h 50 min
Bit rate : 224 kb/s
Channel(s) : 6 channels
Channel positions : Front: L C R, Side: L R, LFE
Sampling rate : 48.0 kHz
Frame rate : 46.875 FPS (1024 SPF)
Compression mode : Lossy
Delay relative to video : 21 ms
Stream size : 2.59 MiB (8%)
Title : ~Ranvijay~
Language : English
Default : No
Forced : No

Text #1
ID : 4
Format : UTF-8
Codec ID : S_TEXT/UTF8
Codec ID/Info : UTF-8 Plain Text
Duration : 1 h 50 min
Bit rate : 115 b/s
Count of elements : 32
Stream size : 1.24 KiB (0%)
Title : ~Ranvijay~
Language : English
Default : Yes
Forced : No

Text #2
ID : 5
Format : UTF-8
Codec ID : S_TEXT/UTF8
Codec ID/Info : UTF-8 Plain Text
Duration : 1 h 50 min
Bit rate : 114 b/s
Count of elements : 28
Stream size : 1.15 KiB (0%)
Title : ~Ranvijay~
Language : English
Default : No
Forced : No






Discussion

Comments 0

Post Your Comment

Files in this torrent

FILENAMESIZE
Shanghai Noon (2000) 1080p BluRay x264 Dual Audio [Hindi DD 2.0 - English DD 5.1] - Esub ~ Ranvijay.mkv2.3 GB

Alternative Torrents for 'Shanghai Noon BluRay Dual Audio Hindi DD English DD . Esub Ranvijay'.

TORRENT NAMEADDEDSIZESEEDSPEERSHEALTH
2/17/20182.3 GB00