The Gifted 1x12-13 EXtraction X-roads ITA ENG 1080p AMZN WEB-DLMux H 264-Morpheus

Torrent Details


The Gifted 1x12-13 eXtraction X-roads ITA ENG 1080p AMZN WEB-DLMux H 264<span style=color:#fc9c6d>-Morpheus</span>

NAME
The Gifted 1x12-13 eXtraction X-roads ITA ENG 1080p AMZN WEB-DLMux H 264-Morpheus.torrent
CATEGORY
Television
INFOHASH
eb34b811b46fc19c89908ec355dfcb3dce95d1d1
SIZE
5.8 GB in 1 file
ADDED
Uploaded on 20-02-2018 by our crawler pet called "Spidey".
SWARM
0 seeders & 0 peers
RATING
No votes yet.

Please login to vote for this torrent.


Description



GIUSEPPEiCV & LITTLELINX
HANNO IL PIACERE DI PRESENTARE

STAGIONE 1
WEB-DLMUX 1080p



.: Dati Serie :.


Nazione : Stati Uniti d'America
Anno : 2017
Genere : azione, fantascienza, supereroi
Stagione 1
Episodi : 10
Durata : 43 min circa
Lingua : ITA - ENG
Cast :

• Stephen Moyer: Reed Strucker
• Amy Acker: Caitlin Strucker
• Sean Teale: Marcos Diaz / Eclipse
• Natalie Alyn Lind: Lauren Strucker
• Percy Hynes White: Andy Strucker
• Coby Bell: Jace Turner
• Jamie Chung: Clarice Fong / Blink
• Blair Redford: John Proudstar / Thunderbird
• Emma Dumont: Lorna Dane / Polaris

In a world where mutated humans are treated with distrust and fear, an institute for mutants battles to achieve peaceful co-existence with humanity.

I signori Strucker sembrano essere due genitori qualsiasi. Reed è un prcuratore distrettuale, Caitlin è un’infermiera. La loro vita viene però stravolta quando sono costretti a fuggire dal governo dopo aver scoperto che i loro figli, Marcos e Clarice, sono in realtà dei mutanti. Durante la fuga si uniranno a un gruppo di mutanti clandestini, cercando di sopravvivere insieme a loro nonostante il governo alle calcagna.

.: Screenshot :.




.: Caratteristiche Tecniche :.
[spoiler]
The.Gifted.1x01.Un.Dono.Una.Maledizione.ITA.ENG.1080p.AMZN.WEB-DLMux.H.264-Morpheus.mkv
Format : Matroska
Format version : Version 4 / Version 2
File size : 3.25 GiB
Duration : 44mn 29s
Overall bit rate mode : Variable
Overall bit rate : 10.5 Mbps
Encoded date : UTC 2017-10-19 15:18:26
Writing application : mkvmerge v7.6.0 ('Garden of Dreams') 64bit built on Feb 8 2015 15:12:28
Writing library : libebml v1.3.1 + libmatroska v1.4.2
_STATISTICS_WRITING_APP : mkvmerge v7.6.0 ('Garden of Dreams') 64bit built on Feb 8 2015 15:12:28
_STATISTICS_WRITING_DATE_UTC : 2017-10-19 15:18:26
_STATISTICS_TAGS : BPS DURATION NUMBER_OF_FRAMES NUMBER_OF_BYTES
DURATION : 00:44:26.367000000
NUMBER_OF_FRAMES : 972
NUMBER_OF_BYTES : 25951

Video
ID : 1
Format : AVC
Format/Info : Advanced Video Codec
Format profile : [email protected]
Format settings, CABAC : Yes
Format settings, ReFrames : 4 frames
Codec ID : V_MPEG4/ISO/AVC
Duration : 44mn 29s
Bit rate mode : Variable
Bit rate : 9 672 Kbps
Maximum bit rate : 15.0 Mbps
Width : 1 920 pixels
Height : 1 080 pixels
Display aspect ratio : 16:9
Frame rate : 25.000 fps
Original frame rate : 23.976 fps
Color space : YUV
Chroma subsampling : 4:2:0
Bit depth : 8 bits
Scan type : Progressive
Bits/(Pixel*Frame) : 0.187
Stream size : 3.01 GiB (93%)
Default : Yes
Forced : No
Color primaries : BT.709-5, BT.1361, IEC 61966-2-4, SMPTE RP177
Transfer characteristics : BT.709-5, BT.1361
Matrix coefficients : BT.709-5, BT.1361, IEC 61966-2-4 709, SMPTE RP177

Audio #1
ID : 2
Format : AC-3
Format/Info : Audio Coding 3
Mode extension : CM (complete main)
Codec ID : A_AC3
Duration : 44mn 29s
Bit rate mode : Constant
Bit rate : 192 Kbps
Channel(s) : 2 channels
Channel positions : Front: L R
Sampling rate : 48.0 KHz
Bit depth : 16 bits
Compression mode : Lossy
Stream size : 61.1 MiB (2%)
Title : ITA
Language : Italian
Default : Yes
Forced : Yes

Audio #2
ID : 3
Format : AC-3
Format/Info : Audio Coding 3
Mode extension : CM (complete main)
Codec ID : A_AC3
Duration : 44mn 29s
Bit rate mode : Constant
Bit rate : 384 Kbps
Channel(s) : 6 channels
Channel positions : Front: L C R, Side: L R, LFE
Sampling rate : 48.0 KHz
Bit depth : 16 bits
Compression mode : Lossy
Stream size : 122 MiB (4%)
Title : ENG
Language : English
Default : No
Forced : No

Text #1
ID : 4
Format : UTF-8
Codec ID : S_TEXT/UTF8
Codec ID/Info : UTF-8 Plain Text
Title : ITA - Forced
Language : Italian
Default : Yes
Forced : Yes

Text #2
ID : 5
Format : UTF-8
Codec ID : S_TEXT/UTF8
Codec ID/Info : UTF-8 Plain Text
Language : Italian
Default : No
Forced : No

Text #3
ID : 6
Format : UTF-8
Codec ID : S_TEXT/UTF8
Codec ID/Info : UTF-8 Plain Text
Language : English
Default : No
Forced : No
[/spoiler]

.: Ringraziamenti :.




RESTATE IN SEED ALTRIMENTI

 

Discussion

Comments 0

Post Your Comment

Files in this torrent

FILENAMESIZE
The.Gifted.1x12-13.eXtraction.X-roads.ITA.ENG.1080p.AMZN.WEB-DLMux.H.264-Morpheus.mkv5.8 GB

Alternative Torrents for 'Gifted eXtraction roads ENG DLMux'.

TORRENT NAMEADDEDSIZESEEDSPEERSHEALTH
2/20/20185.8 GB00