12 Years A Slave 2013 720p BluRay X264 Dual Audio [Hindi DD 2 0 - English 2 0] ESub

Torrent Details


12 Years a Slave 2013 720p BluRay x264 Dual Audio [Hindi DD 2 0 - English 2 0] ESub

NAME
12 Years a Slave 2013 720p BluRay x264 Dual Audio [Hindi DD 2 0 - English 2 0] ESub.torrent
CATEGORY
Movies
INFOHASH
a0a082dafc9decf513dc036afb6caad95208ef39
SIZE
1 GB in 1 file
ADDED
Uploaded on 26-02-2018 by our crawler pet called "Spidey".
SWARM
0 seeders & 0 peers
RATING
No votes yet.

Please login to vote for this torrent.


Description




General
Format : Matroska
Format version : Version 4 / Version 2
File size : 1.02 GiB
Duration : 2 h 14 min
Overall bit rate : 1 091 kb/s

Video
ID : 1
Format : AVC
Format/Info : Advanced Video Codec
Format profile : [email protected]
Format settings : CABAC / 4 Ref Frames
Format settings, CABAC : Yes
Format settings, ReFrames : 4 frames
Codec ID : V_MPEG4/ISO/AVC
Duration : 2 h 14 min
Bit rate : 866 kb/s
Width : 1 280 pixels
Height : 536 pixels
Display aspect ratio : 2.40:1
Frame rate mode : Constant
Frame rate : 23.976 (24000/1001) FPS
Original frame rate : 23.976 (23976/1000) FPS
Color space : YUV
Chroma subsampling : 4:2:0
Bit depth : 8 bits
Scan type : Progressive
Bits/(Pixel*Frame) : 0.053
Stream size : 831 MiB (79%)
Writing library : x264 core 135 r2 f0c1c53
Default : Yes
Forced : No

Audio #1
ID : 2
Format : AC-3
Format/Info : Audio Coding 3
Codec ID : A_AC3
Duration : 2 h 14 min
Bit rate mode : Constant
Bit rate : 128 kb/s
Channel(s) : 2 channels
Channel positions : Front: L R
Sampling rate : 44.1 kHz
Frame rate : 28.711 FPS (1536 SPF)
Bit depth : 16 bits
Compression mode : Lossy
Stream size : 123 MiB (12%)
Language : Hindi
Service kind : Complete Main
Default : Yes
Forced : No

Audio #2
ID : 3
Format : AAC
Format/Info : Advanced Audio Codec
Format profile : LC
Codec ID : A_AAC-2
Duration : 2 h 14 min
Bit rate : 93.8 kb/s
Channel(s) : 2 channels
Channel positions : Front: L R
Sampling rate : 48.0 kHz
Frame rate : 46.875 FPS (1024 SPF)
Compression mode : Lossy
Stream size : 90.1 MiB (9%)
Language : English
Default : No
Forced : No

Text
ID : 4
Format : UTF-8
Codec ID : S_TEXT/UTF8
Codec ID/Info : UTF-8 Plain Text
Duration : 2 h 12 min
Bit rate : 43 b/s
Count of elements : 1486
Stream size : 42.0 KiB (0%)
Default : Yes
Forced : No











Discussion

Comments 0

Post Your Comment

Files in this torrent

FILENAMESIZE
12 Years a Slave 2013 720p BluRay x264 Dual Audio [Hindi DD 2.0 - English 2.0] ESub.mkv1 GB

Alternative Torrents for 'Years Slave BluRay Dual Audio Hindi DD English ESub'.

TORRENT NAMEADDEDSIZESEEDSPEERSHEALTH
2/26/20181 GB00