12 Years A Slave 2013 720p Esub BluRay Dual Audio English Hindi GOPISAHI

Torrent Details

12 Years a Slave 2013 720p Esub BluRay  Dual Audio English Hindi GOPISAHI12 Years a Slave 2013 720p Esub BluRay  Dual Audio English Hindi GOPISAHI

NAME
12 Years a Slave 2013 720p Esub BluRay Dual Audio English Hindi GOPISAHI.torrent
CATEGORY
Movies
INFOHASH
5867b76c68afb3c39416f2de6ae603f6ac15db5e
SIZE
778 MB in 1 file
ADDED
Uploaded on 01-03-2018 by our crawler pet called "Spidey".
SWARM
0 seeders & 0 peers
RATING
No votes yet.

Please login to vote for this torrent.


Description


Format                         : Matroska
Format version                 : Version 4 / Version 2
File size                      : 778 MiB
Duration                       : 2 h 14 min
Overall bit rate               : 811 kb/s
Movie name                     : 12 Years a Slave 2013 GOPISAHI

Video
Format                         : AVC
Codec ID                       : V_MPEG4/ISO/AVC
Duration                       : 2 h 14 min
Bit rate                       : 600 kb/s
Width                          : 1 280 pixels
Height                         : 536 pixels
Display aspect ratio           : 2.40:1
Frame rate mode                : Constant
Frame rate                     : 23.976 (24000/1001) FPS
Stream size                    : 576 MiB (74%)
Title                          : GOPISAHI
Writing library                : x264 core 155 r2893 b00bcaf

Audio #1
Format                         : AAC
Duration                       : 2 h 14 min
Bit rate                       : 103 kb/s
Channel(s)                     : 6 channels
Channel positions              : Front: L C R, Side: L R, LFE
Sampling rate                  : 44.1 kHz
Frame rate                     : 43.066 FPS (1024 SPF)
Compression mode               : Lossy
Stream size                    : 98.7 MiB (13%)
Language                       : English

Audio #2
Format                         : AAC
Duration                       : 2 h 14 min
Bit rate                       : 105 kb/s
Channel(s)                     : 6 channels
Channel positions              : Front: L C R, Side: L R, LFE
Sampling rate                  : 44.1 kHz
Frame rate                     : 43.066 FPS (1024 SPF)
Compression mode               : Lossy
Stream size                    : 101 MiB (13%)
Language                       : Hindi

Text
Language                       : English

Discussion

Comments 0

Post Your Comment

Files in this torrent

FILENAMESIZE
12 Years a Slave 2013 720p Esub BluRay Dual Audio English Hindi GOPISAHI.mkv777.9 MB

Alternative Torrents for 'Years Slave Esub BluRay Dual Audio English Hindi GOPISAHI'.

TORRENT NAMEADDEDSIZESEEDSPEERSHEALTH
3/1/2018778 MB00