Warning! Do NOT Download Without a VPN!
Your IP Address is .   Location is United States
Your Internet Provider and Government can track your download activities! Hide your IP ADDRESS with a VPN!
We strongly recommend using a VPN service to anonymize your torrent downloads. It's FREE!
START YOUR FREE TRIAL NOW!

The Dark Tower (2017) X 1600 (2160p) SDR 5 1 X265 Phun Psyz

Torrent Details

The Dark Tower (2017) x 1600 (2160p) SDR 5 1 x265 Phun Psyz

NAME
The Dark Tower (2017) x 1600 (2160p) SDR 5 1 x265 Phun Psyz.torrent
CATEGORY
Movies
INFOHASH
8363a3b2b2f997abc88ad569c9220022158bf354
SIZE
4.9 GB in 1 file
ADDED
Uploaded on 22-03-2018 by our crawler pet called "Spidey".
SWARM
0 seeders & 0 peers
RATING
No votes yet.

Please login to vote for this torrent.


Description

www.imdb.com/title/tt1648190/

The last Gunslinger, Roland Deschain, has been locked in an eternal battle with Walter O'Dim, also known as the Man in Black, determined to prevent him from toppling the Dark Tower, which holds the universe together. With the fate of the worlds at stake, good and evil will collide in the ultimate battle as only Roland can defend the Tower from the Man in Black.

Source: TERMiNAL (17.2 GiB)



Format : Matroska
Format version : Version 4 / Version 2
File size : 4.89 GiB
Duration : 1 h 34 min
Overall bit rate : 7 385 kb/s

Video
ID : 1
Format : HEVC
Format/Info : High Efficiency Video Coding
Format profile : [email protected]@High
Codec ID : V_MPEGH/ISO/HEVC
Duration : 1 h 34 min
Bit rate : 6 918 kb/s
Width : 3 840 pixels
Height : 1 600 pixels
Display aspect ratio : 2.40:1
Frame rate mode : Constant
Frame rate : 23.976 (24000/1001) FPS
Color space : YUV
Chroma subsampling : 4:2:0
Bit depth : 8 bits
Bits/(Pixel*Frame) : 0.047
Stream size : 4.58 GiB (94%)
Writing library : x265 2.1:[Windows][GCC 5.3.1][64 bit] 8bit

Audio
ID : 2
Format : AC-3
Format/Info : Audio Coding 3
Format settings, Endianness : Big
Codec ID : A_AC3
Duration : 1 h 34 min
Bit rate mode : Constant
Bit rate : 320 kb/s
Channel(s) : 6 channels
Channel positions : Front: L C R, Side: L R, LFE
Sampling rate : 48.0 kHz
Frame rate : 31.250 FPS (1536 SPF)
Bit depth : 16 bits
Compression mode : Lossy
Stream size : 217 MiB (4%)
Title : Surround
Language : English

Text
Language : English
Language : English
Language : Chinese
Language : Chinese
Language : Chinese
Language : French
Language : Korean
Language : Portuguese
Language : Spanish
Language : Thai
Language : Vietnamese
Default : No
Forced : No

Discussion

Comments 0

Post Your Comment

Files in this torrent

FILENAMESIZE
The Dark Tower (2017) x 1600 (2160p) SDR 5.1 x265 Phun Psyz.mkv4.9 GB

Alternative Torrents for 'Dark Tower SDR Phun Psyz'.

There are no alternative torrents found.