Warning! Do NOT Download Without a VPN!
Your IP Address is .   Location is United States
Your Internet Provider and Government can track your download activities! Hide your IP ADDRESS with a VPN!
We strongly recommend using a VPN service to anonymize your torrent downloads. It's FREE!
START YOUR FREE TRIAL NOW!

Marvels Agents Of S H I E L D 5x19 Opzione Due ITA ENG 1080p AMZN WEB-DLMux H 264-Morpheus

Torrent Details

Marvels Agents of S H I E L D 5x19 Opzione Due ITA ENG 1080p AMZN WEB-DLMux H 264-Morpheus

NAME
Marvels Agents of S H I E L D 5x19 Opzione Due ITA ENG 1080p AMZN WEB-DLMux H 264-Morpheus.torrent
CATEGORY
Television
INFOHASH
0735619135460972f2917164a6efbb8726b84f64
SIZE
2.7 GB in 1 file
ADDED
Uploaded on 25-05-2018 by our crawler pet called "Spidey".
SWARM
0 seeders & 0 peers
RATING
No votes yet.

Please login to vote for this torrent.


Description

GIUSEPPEiCV & LITTLELINX
HANNO IL PIACERE DI PRESENTARE

Marvel's Agents of S.H.I.E.L.D.
STAGIONE 5
WEB-DLMUX 1080p
Dual Language ITA - ENG
Sub ITA - ENG



.: Dati Serie :.


Nazione : Stati Uniti d'America
Anno : 2017
Genere : azione, fantascienza, supereroi
Stagione 5
Episodi : 22
Durata : 43 min circa
Lingua : ITA - ENG
Cast :
• Clark Gregg: Phil Coulson
• Ming-Na Wen: Melinda May
• Brett Dalton: Grant Ward / Hive
• Chloe Bennet: Daisy "Skye" Johnson / Quake
• Iain De Caestecker: Leopold "Leo" Fitz
• Elizabeth Henstridge: Jemma Simmons
• Nick Blood: Lance Hunter
• Adrianne Palicki: Bobbi Morse
• Henry Simmons: Al "Mack" MacKenzie
• Luke Mitchell: Lincoln Campbell
• John Hannah: Holden Radcliffe
• Natalia Cordova-Buckley: Elena "Yo-Yo" Rodriguez

The missions of the Strategic Homeland Intervention, Enforcement and Logistics Division.

La quinta stagione di Marvel's Agents of S.H.I.E.L.D. ci porterà nello spazio.

Il finale della quarta stagione aveva visto la squadra guidata dall'agente Coulson finire vittima di rapimento da parte di alcuni misteriosi agenti, che li avevano portati su una stazione spaziale.

Dall'ultima immagine riguardante Coulson, intuivamo che l'agente si trovava lì, nello spazio, già da diverso tempo.

All'inizio della stagione 5 scopriremo il destino degli agenti dello S.H.I.E.L.D.: dove sono stati portati e da quanto si trovano lì.

Natalia Cordova-Buckley si unirà al cast come regular nel ruolo che ricopre sin dalla terza stagione, quello di Elena "Yo-Yo" Rodriguez, cittadina colombiana che è stata esposta alla terrigenesi acquisendo l'abilità di viaggiare a velocità sovrumana.

Nel quinto ciclo di episodio farà anche il suo ingresso nel cast il personaggio di Jeff Ward (Channel Zero), un uomo chiamato Deke, e vedremo il ritorno dell’ex mercenario Lance Hunter, interpretato dall'attore Nick Blood.

.: Screenshot :.



.: Caratteristiche Tecniche :.
[spoiler]
Marvels.Agents.of.S.H.I.E.L.D.5x01.Orientarsi.Parte.1.ITA.ENG.1080p.AMZN.WEB-DLMux.H.264-Morpheus.mkv
Format                                   : Matroska
Format version                           : Version 4 / Version 2
File size                                : 2.17 GiB
Duration                                 : 41mn 13s
Overall bit rate mode                    : Variable
Overall bit rate                         : 7 530 Kbps
Encoded date                             : UTC 2017-12-21 13:07:22
Writing application                      : mkvmerge v7.6.0 ('Garden of Dreams') 64bit built on Feb  8 2015 15:12:28
Writing library                          : libebml v1.3.1 + libmatroska v1.4.2
DURATION                                 : 00:40:39.575000000
NUMBER_OF_FRAMES                         : 592
NUMBER_OF_BYTES                          : 21562
_STATISTICS_WRITING_APP                  : mkvmerge v7.6.0 ('Garden of Dreams') 64bit built on Feb  8 2015 15:12:28
_STATISTICS_WRITING_DATE_UTC             : 2017-12-21 13:07:22
_STATISTICS_TAGS                         : BPS DURATION NUMBER_OF_FRAMES NUMBER_OF_BYTES

Video
ID                                       : 1
Format                                   : AVC
Format/Info                              : Advanced Video Codec
Format profile                           : [email protected]
Format settings, CABAC                   : Yes
Format settings, ReFrames                : 4 frames
Codec ID                                 : V_MPEG4/ISO/AVC
Duration                                 : 41mn 14s
Bit rate mode                            : Variable
Bit rate                                 : 6 804 Kbps
Maximum bit rate                         : 15.0 Mbps
Width                                    : 1 920 pixels
Height                                   : 1 080 pixels
Display aspect ratio                     : 16:9
Frame rate                               : 25.000 fps
Original frame rate                      : 23.976 fps
Color space                              : YUV
Chroma subsampling                       : 4:2:0
Bit depth                                : 8 bits
Scan type                                : Progressive
Bits/(Pixel*Frame)                       : 0.131
Stream size                              : 1.96 GiB (90%)
Default                                  : Yes
Forced                                   : No
Color primaries                          : BT.709-5, BT.1361, IEC 61966-2-4, SMPTE RP177
Transfer characteristics                 : BT.709-5, BT.1361
Matrix coefficients                      : BT.709-5, BT.1361, IEC 61966-2-4 709, SMPTE RP177

Audio #1
ID                                       : 2
Format                                   : AC-3
Format/Info                              : Audio Coding 3
Mode extension                           : CM (complete main)
Codec ID                                 : A_AC3
Duration                                 : 41mn 13s
Bit rate mode                            : Constant
Bit rate                                 : 192 Kbps
Channel(s)                               : 2 channels
Channel positions                        : Front: L R
Sampling rate                            : 48.0 KHz
Bit depth                                : 16 bits
Compression mode                         : Lossy
Stream size                              : 56.6 MiB (3%)
Title                                    : ITA
Language                                 : Italian
Default                                  : Yes
Forced                                   : Yes

Audio #2
ID                                       : 3
Format                                   : AC-3
Format/Info                              : Audio Coding 3
Mode extension                           : CM (complete main)
Codec ID                                 : A_AC3
Duration                                 : 41mn 13s
Bit rate mode                            : Constant
Bit rate                                 : 384 Kbps
Channel(s)                               : 6 channels
Channel positions                        : Front: L C R, Side: L R, LFE
Sampling rate                            : 48.0 KHz
Bit depth                                : 16 bits
Compression mode                         : Lossy
Stream size                              : 113 MiB (5%)
Title                                    : ENG
Language                                 : English
Default                                  : No
Forced                                   : No

Text #1
ID                                       : 4
Format                                   : UTF-8
Codec ID                                 : S_TEXT/UTF8
Codec ID/Info                            : UTF-8 Plain Text
Title                                    : ITA - Forced
Language                                 : Italian
Default                                  : Yes
Forced                                   : Yes

Text #2
ID                                       : 5
Format                                   : UTF-8
Codec ID                                 : S_TEXT/UTF8
Codec ID/Info                            : UTF-8 Plain Text
Language                                 : Italian
Default                                  : No
Forced                                   : No

Text #3
ID                                       : 6
Format                                   : UTF-8
Codec ID                                 : S_TEXT/UTF8
Codec ID/Info                            : UTF-8 Plain Text
Language                                 : English
Default                                  : No
Forced                                   : No

[/spoiler]

.: Ringraziamenti :.




RESTATE IN SEED ALTRIMENTI

 

Discussion

Comments 0

Post Your Comment

Files in this torrent

FILENAMESIZE
Marvels.Agents.of.S.H.I.E.L.D.5x19.Opzione.Due.ITA.ENG.1080p.AMZN.WEB-DLMux.H.264-Morpheus.mkv2.7 GB

Alternative Torrents for 'Marvels Agents of Opzione Due ENG DLMux'.

There are no alternative torrents found.