Into The Badlands S03E07 Dragonflys Last Dance 1080p 5 1 - 2 0 X264 Phun Psyz

Torrent Details

Into the Badlands S03E07 Dragonflys Last Dance 1080p 5 1 - 2 0 x264 Phun PsyzInto the Badlands S03E07 Dragonflys Last Dance 1080p 5 1 - 2 0 x264 Phun Psyz

NAME
Into the Badlands S03E07 Dragonflys Last Dance 1080p 5 1 - 2 0 x264 Phun Psyz.torrent
CATEGORY
Television
INFOHASH
17111fcb0be245e07bd79c942fc7841790db6ce3
SIZE
819 MB in 1 file
ADDED
Uploaded on 04-07-2018 by our crawler pet called "Spidey".
SWARM
0 seeders & 0 peers
RATING
No votes yet.

Please login to vote for this torrent.


Description

www.imdb.com/title/tt7843546/?ref_=ttep_ep7

Sunny works with the River King to secure passage to Pilgrim's Fortress; The Widow faces mutiny from discontented troops.

Source: NTb (Amzn) (3.08 GiB)



Format : MPEG-4
Format profile : Base Media / Version 2
Codec ID : mp42 (isom/iso2/avc1/mp41)
File size : 819 MiB
Duration : 42 min 31 s
Overall bit rate mode : Variable
Overall bit rate : 2 692 kb/s

Video
ID : 1
Format : AVC
Format/Info : Advanced Video Codec
Format profile : [email protected]
Format settings : CABAC / 8 Ref Frames
Format settings, CABAC : Yes
Format settings, RefFrames : 8 frames
Codec ID : avc1
Codec ID/Info : Advanced Video Coding
Duration : 42 min 31 s
Bit rate : 2 204 kb/s
Width : 1 920 pixels
Height : 1 080 pixels
Display aspect ratio : 16:9
Frame rate mode : Variable
Frame rate : 23.976 (24000/1001) FPS
Minimum frame rate : 23.974 FPS
Maximum frame rate : 23.981 FPS
Color space : YUV
Chroma subsampling : 4:2:0
Bit depth : 8 bits
Scan type : Progressive
Bits/(Pixel*Frame) : 0.044
Stream size : 670 MiB (82%)
Writing library : x264 core 155 r2893 b00bcaf

Audio #1
ID : 2
Format : AC-3
Format/Info : Audio Coding 3
Format settings, Endianness : Big
Codec ID : ac-3
Duration : 42 min 31 s
Bit rate mode : Constant
Bit rate : 320 kb/s
Channel(s) : 6 channels
Channel positions : Front: L C R, Side: L R, LFE
Sampling rate : 48.0 kHz
Frame rate : 31.250 FPS (1536 SPF)
Bit depth : 16 bits
Compression mode : Lossy
Stream size : 97.3 MiB (12%)
Title : Surround / Surround
Language : English

Audio #2
ID : 3
Format : AAC
Format/Info : Advanced Audio Codec
Format profile : LC
Codec ID : mp4a-40-2
Duration : 42 min 31 s
Bit rate mode : Variable
Bit rate : 160 kb/s
Channel(s) : 2 channels
Channel positions : Front: L R
Sampling rate : 48.0 kHz
Frame rate : 46.875 FPS (1024 SPF)
Compression mode : Lossy
Stream size : 48.7 MiB (6%)
Title : Stereo / Stereo
Language : English

Text
Language : English
Default : Yes
Forced : No

Discussion

Comments 0

Post Your Comment

Files in this torrent

FILENAMESIZE
Into the Badlands S03E07 Dragonflys Last Dance 1080p 5.1 - 2.0 x264 Phun Psyz.mp4818.6 MB

Alternative Torrents for 'Into Badlands Dragonflys Last Dance Phun Psyz'.

TORRENT NAMEADDEDSIZESEEDSPEERSHEALTH
7/4/2018819 MB00