Continuum Season 4 1080p Bluray BDrip X265 AAC 5.1 D0ct0rLew[UTR-HD]

Torrent Details

Continuum Season 4 1080p Bluray BDrip x265 AAC 5.1 D0ct0rLew[UTR-HD]

NAME
Continuum Season 4 1080p Bluray BDrip x265 AAC 5.1 D0ct0rLew[UTR-HD].torrent
CATEGORY
Television
INFOHASH
586170cc585f83d4cd175d8443f87ce0c3ead436
SIZE
19.1 GB in 6 files
ADDED
Uploaded on 07-07-2018 by our crawler pet called "Spidey".
SWARM
0 seeders & 0 peers
RATING
No votes yet.

Please login to vote for this torrent.


Description

Screenshots
Source


Encode

Media Information

Unique ID                                : 234880175704884517357303368338153315290 (0xB0B446C0668124D6A813C7382B4E9BDA)
Complete name                            : Continuum Season 4 1080p Bluray BDrip x265 AAC 5.1 D0ct0rLew[UTR-HD]Continuum S04E06 Final Hour 1080p Bluray BDrip x265 AAC 5.1 D0ct0rLew[UTR-HD].mkv
Format                                   : Matroska
Format version                           : Version 4 / Version 2
File size                                : 2.71 GiB
Duration                                 : 44 min 2 s
Overall bit rate                         : 8 796 kb/s
Encoded date                             : UTC 2018-07-05 15:22:23
Writing application                      : mkvmerge v15.0.0 ('Duel with the Devil') 64-bit
Writing library                          : libebml v1.3.5 + libmatroska v1.4.5

Video
ID                                       : 3
Format                                   : HEVC
Format/Info                              : High Efficiency Video Coding
Format profile                           : Main [email protected]@Main
Codec ID                                 : V_MPEGH/ISO/HEVC
Duration                                 : 44 min 2 s
Bit rate                                 : 8 245 kb/s
Width                                    : 1 920 pixels
Height                                   : 1 080 pixels
Display aspect ratio                     : 16:9
Frame rate mode                          : Constant
Frame rate                               : 23.976 (24000/1001) FPS
Color space                              : YUV
Chroma subsampling                       : 4:2:0
Bit depth                                : 10 bits
Bits/(Pixel*Frame)                       : 0.166
Stream size                              : 2.54 GiB (94%)
Writing library                          : x265 2.7+348-0968a46d6ba4:[Windows][MSVC 1914][64 bit] 10bit
Encoding settings                        : cpuid=1049583 / frame-threads=3 / numa-pools=8 / wpp / no-pmode / no-pme / no-psnr / no-ssim / log-level=2 / input-csp=1 / input-res=1920x1080 / interlace=0 / total-frames=63360 / level-idc=0 / high-tier=1 / uhd-bd=0 / ref=4 / no-allow-non-conformance / no-repeat-headers / annexb / no-aud / no-hrd / info / hash=0 / no-temporal-layers / open-gop / min-keyint=23 / keyint=250 / gop-lookahead=0 / bframes=8 / b-adapt=2 / b-pyramid / bframe-bias=0 / rc-lookahead=90 / lookahead-slices=4 / scenecut=40 / radl=0 / no-intra-refresh / ctu=64 / min-cu-size=8 / rect / amp / max-tu-size=32 / tu-inter-depth=2 / tu-intra-depth=2 / limit-tu=4 / rdoq-level=2 / dynamic-rd=0.00 / no-ssim-rd / signhide / no-tskip / nr-intra=0 / nr-inter=0 / no-constrained-intra / no-strong-intra-smoothing / max-merge=3 / limit-refs=2 / limit-modes / me=3 / subme=3 / merange=57 / temporal-mvp / weightp / weightb / no-analyze-src-pics / deblock=-1:-1 / no-sao / no-sao-non-deblock / rd=6 / no-early-skip / no-rskip / no-fast-intra / no-tskip-fast / no-cu-lossless / b-intra / no-splitrd-skip / rdpenalty=0 / psy-rd=1.10 / psy-rdoq=1.00 / no-rd-refine / no-lossless / cbqpoffs=-3 / crqpoffs=-3 / rc=crf / crf=19.0 / qcomp=0.60 / qpstep=4 / stats-write=0 / stats-read=0 / ipratio=1.40 / pbratio=1.30 / aq-mode=3 / aq-strength=1.30 / cutree / zone-count=0 / no-strict-cbr / qg-size=32 / no-rc-grain / qpmax=69 / qpmin=0 / no-const-vbv / sar=0 / overscan=0 / videoformat=5 / range=0 / colorprim=2 / transfer=2 / colormatrix=2 / chromaloc=0 / display-window=0 / max-cll=0,0 / min-luma=0 / max-luma=1023 / log2-max-poc-lsb=8 / vui-timing-info / vui-hrd-info / slices=1 / no-opt-qp-pps / no-opt-ref-list-length-pps / no-multi-pass-opt-rps / scenecut-bias=0.05 / no-opt-cu-delta-qp / no-aq-motion / no-hdr / no-hdr-opt / no-dhdr10-opt / no-idr-recovery-sei / analysis-reuse-level=5 / scale-factor=0 / refine-intra=0 / refine-inter=0 / refine-mv=0 / no-limit-sao / ctu-info=0 / no-lowpass-dct / refine-mv-type=0 / copy-pic=1 / max-ausize-factor=1.0 / no-dynamic-refine / no-single-sei
Default                                  : Yes
Forced                                   : No

Audio #1
ID                                       : 2
Format                                   : AAC
Format/Info                              : Advanced Audio Codec
Format profile                           : LC
Codec ID                                 : A_AAC-2
Duration                                 : 44 min 2 s
Bit rate                                 : 420 kb/s
Channel(s)                               : 6 channels
Channel positions                        : Front: L C R, Side: L R, LFE
Sampling rate                            : 48.0 kHz
Frame rate                               : 46.875 FPS (1024 SPF)
Compression mode                         : Lossy
Delay relative to video                  : 9 ms
Stream size                              : 132 MiB (5%)
Language                                 : English
Default                                  : Yes
Forced                                   : No

Audio #2
ID                                       : 4
Format                                   : AAC
Format/Info                              : Advanced Audio Codec
Format profile                           : LC
Codec ID                                 : A_AAC-2
Duration                                 : 44 min 2 s
Bit rate                                 : 128 kb/s
Channel(s)                               : 2 channels
Channel positions                        : Front: L R
Sampling rate                            : 48.0 kHz
Frame rate                               : 46.875 FPS (1024 SPF)
Compression mode                         : Lossy
Delay relative to video                  : 9 ms
Stream size                              : 40.3 MiB (1%)
Title                                    : Commentary by Cast, Crew or Special Guest
Language                                 : English
Default                                  : No
Forced                                   : No

Text
ID                                       : 1
Format                                   : UTF-8
Codec ID                                 : S_TEXT/UTF8
Codec ID/Info                            : UTF-8 Plain Text
Duration                                 : 42 min 42 s
Bit rate                                 : 60 b/s
Count of elements                        : 602
Stream size                              : 18.8 KiB (0%)
Language                                 : English
Default                                  : Yes
Forced                                   : No

Menu
00:00:00.000                             : en: Chapter 1
00:06:18.837                             : en: Chapter 2
00:22:22.883                             : en: Chapter 3
00:36:24.974                             : en: Chapter 4


Source Media Information

Unique ID                                : 240433909726463505331807257450675089657 (0xB4E1E2FAC32770E4DF092C2CCCB2B0F9)
Complete name                            : Continuum.S04.1080p.BluRay.REMUX.AVC.DTS-HD.MA.5.1-EPSiLONContinuum.S04E06.Final.Hour.1080p.BluRay.REMUX.AVC.DTS-HD.MA.5.1-EPSiLON.mkv
Format                                   : Matroska
Format version                           : Version 4 / Version 2
File size                                : 10.9 GiB
Duration                                 : 44 min 2 s
Overall bit rate mode                    : Variable
Overall bit rate                         : 35.4 Mb/s
Encoded date                             : UTC 2017-05-01 13:41:35
Writing application                      : mkvmerge v9.6.0 ('Slave To Your Mind') 64bit
Writing library                          : libebml v1.3.4 + libmatroska v1.4.5

Video
ID                                       : 1
Format                                   : AVC
Format/Info                              : Advanced Video Codec
Format profile                           : [email protected]
Format settings                          : CABAC / 4 Ref Frames
Format settings, CABAC                   : Yes
Format settings, RefFrames               : 4 frames
Codec ID                                 : V_MPEG4/ISO/AVC
Duration                                 : 44 min 2 s
Bit rate mode                            : Variable
Bit rate                                 : 31.4 Mb/s
Maximum bit rate                         : 35.0 Mb/s
Width                                    : 1 920 pixels
Height                                   : 1 080 pixels
Display aspect ratio                     : 16:9
Frame rate mode                          : Constant
Frame rate                               : 23.976 (24000/1001) FPS
Color space                              : YUV
Chroma subsampling                       : 4:2:0
Bit depth                                : 8 bits
Scan type                                : Progressive
Bits/(Pixel*Frame)                       : 0.632
Stream size                              : 9.66 GiB (89%)
Title                                    : MPEG-4 AVC Video / ~31990 kbps / 1080p / 23.976 fps / 16:9 / High Profile 4.1
Language                                 : English
Default                                  : Yes
Forced                                   : No

Audio #1
ID                                       : 2
Format                                   : DTS
Format/Info                              : Digital Theater Systems
Format profile                           : MA / Core
Codec ID                                 : A_DTS
Duration                                 : 44 min 2 s
Bit rate mode                            : Variable / Constant
Bit rate                                 : 3 746 kb/s / 1 509 kb/s
Channel(s)                               : 6 channels
Channel positions                        : Front: L C R, Side: L R, LFE
Sampling rate                            : 48.0 kHz
Frame rate                               : 93.750 FPS (512 SPF)
Bit depth                                : 24 bits
Compression mode                         : Lossless / Lossy
Stream size                              : 1.15 GiB (11%)
Title                                    : DTS-HD Master Audio / 5.1 / 48 kHz / 3707 kbps / 24-bit
Language                                 : English
Default                                  : Yes
Forced                                   : No

Audio #2
ID                                       : 3
Format                                   : AC-3
Format/Info                              : Audio Coding 3
Codec ID                                 : A_AC3
Duration                                 : 44 min 2 s
Bit rate mode                            : Constant
Bit rate                                 : 192 kb/s
Channel(s)                               : 2 channels
Channel positions                        : Front: L R
Sampling rate                            : 48.0 kHz
Frame rate                               : 31.250 FPS (1536 SPF)
Bit depth                                : 16 bits
Compression mode                         : Lossy
Stream size                              : 60.5 MiB (1%)
Title                                    : Commentary by Cast, Crew or Special Guest (Dolby Digital Audio / 2.0 / 48 kHz / 192 kbps)
Language                                 : English
Service kind                             : Complete Main
Default                                  : No
Forced                                   : No

Text
ID                                       : 4
Format                                   : PGS
Codec ID                                 : S_HDMV/PGS
Codec ID/Info                            : Picture based subtitle format used on BDs/HD-DVDs
Duration                                 : 42 min 33 s
Bit rate                                 : 40.1 kb/s
Count of elements                        : 1202
Stream size                              : 12.2 MiB (0%)
Title                                    : SDH
Language                                 : English
Default                                  : No
Forced                                   : No

Menu
00:00:00.000                             : en: Chapter 1
00:06:18.837                             : en: Chapter 2
00:22:22.883                             : en: Chapter 3
00:36:24.974                             : en: Chapter 4


We have no issue with individuals posting or re-uploading our torrents on a platform we aren't on. However, if this is something you'd like to do, please do so in a 'as-is' format. We ask that you do not create a new torrent, include all descriptions you see above including the UTR logo, tags, notes and screenshots. If you'd like to become a permanent poster on a website we don't post to, feel free to get in contact with a UniTeam member.

Discussion

Comments 0

Post Your Comment

Files in this torrent

FILENAMESIZE
Continuum S04E01 Lost Hours 1080p Bluray BDrip x265 AAC 5.1 D0ct0rLew[UTR-HD].mkv3.6 GB
Continuum S04E02 Rush Hour 1080p Bluray BDrip x265 AAC 5.1 D0ct0rLew[UTR-HD].mkv4.6 GB
Continuum S04E03 Power Hour 1080p Bluray BDrip x265 AAC 5.1 D0ct0rLew[UTR-HD].mkv3 GB
Continuum S04E04 Zero Hour 1080p Bluray BDrip x265 AAC 5.1 D0ct0rLew[UTR-HD].mkv2.7 GB
Continuum S04E05 The Desperate Hours 1080p Bluray BDrip x265 AAC 5.1 D0ct0rLew[UTR-HD].mkv2.6 GB
Continuum S04E06 Final Hour 1080p Bluray BDrip x265 AAC 5.1 D0ct0rLew[UTR-HD].mkv2.7 GB

Alternative Torrents for 'Continuum Season Bluray AAC DctrLewUTRHD'.

There are no alternative torrents found.