Warning! Do NOT Download Without a VPN!
Your IP Address is .   Location is United States
Your Internet Provider and Government can track your download activities! Hide your IP ADDRESS with a VPN!
We strongly recommend using a VPN service to anonymize your torrent downloads. It's FREE!
START YOUR FREE TRIAL NOW!

The Greatest Showman 2017 1080p Bluray Dual Audio Hindi DD 5 1 English 6CH MAVI

Torrent Details

The Greatest Showman 2017 1080p Bluray Dual Audio Hindi DD 5 1 English 6CH MAVI

NAME
The Greatest Showman 2017 1080p Bluray Dual Audio Hindi DD 5 1 English 6CH MAVI.torrent
CATEGORY
Movies
INFOHASH
c485437be2823dfe059beaedf69108561250335c
SIZE
4.7 GB in 17 files
ADDED
Uploaded on 11-07-2018 by our crawler pet called "Spidey".
SWARM
0 seeders & 0 peers
RATING
No votes yet.

Please login to vote for this torrent.


Description

Movie Encode From Full BD/BDREMUX

The Greatest Showman 2017 1080p Bluray Dual Audio Hindi DD 5.1 English 6CH MAVI

Join Us Now FaceBook

Org Bluray Audio Source (Hammer Thanks For Audio)

Video
ID : 1
Format : AVC
Format/Info : Advanced Video Codec
Format profile : [email protected]
Format settings : CABAC / 5 Ref Frames
Format settings, CABAC : Yes
Format settings, RefFrames : 5 frames
Codec ID : V_MPEG4/ISO/AVC
Duration : 1 h 44 min
Bit rate : 5 000 kb/s
Width : 1 920 pixels
Height : 800 pixels
Display aspect ratio : 2.40:1
Frame rate mode : Constant
Frame rate : 23.976 (24000/1001) FPS
Color space : YUV
Chroma subsampling : 4:2:0
Bit depth : 8 bits
Scan type : Progressive
Bits/(Pixel*Frame) : 0.136
Stream size : 3.66 GiB (78%)
Language : English
Default : Yes
Forced : No
Color range : Limited
Color primaries : Generic film
Transfer characteristics : BT.709
Matrix coefficients : BT.709

Audio #1
ID : 2
Format : AC-3
Format/Info : Audio Coding 3
Codec ID : A_AC3
Duration : 1 h 44 min
Bit rate mode : Constant
Bit rate : 640 kb/s
Channel(s) : 6 channels
Channel positions : Front: L C R, Side: L R, LFE
Sampling rate : 48.0 kHz
Frame rate : 31.250 FPS (1536 SPF)
Bit depth : 16 bits
Compression mode : Lossy
Stream size : 480 MiB (10%)
Language : English
Service kind : Complete Main
Default : Yes
Forced : No

Audio #2
ID : 3
Format : AC-3
Format/Info : Audio Coding 3
Codec ID : A_AC3
Duration : 1 h 44 min
Bit rate mode : Constant
Bit rate : 448 kb/s
Channel(s) : 6 channels
Channel positions : Front: L C R, Side: L R, LFE
Sampling rate : 48.0 kHz
Frame rate : 31.250 FPS (1536 SPF)
Bit depth : 16 bits
Compression mode : Lossy
Stream size : 336 MiB (7%)
Language : Hindi
Service kind : Complete Main
Default : No
Forced : No

Text #1
ID : 4
Format : PGS
Codec ID : S_HDMV/PGS
Codec ID/Info : Picture based subtitle format used on BDs/HD-DVDs
Duration : 1 h 43 min
Bit rate : 51.5 kb/s
Count of elements : 3728
Stream size : 38.1 MiB (1%)
Title : SDH
Language : English
Default : Yes
Forced : No

Text #2
ID : 5
Format : PGS
Codec ID : S_HDMV/PGS
Codec ID/Info : Picture based subtitle format used on BDs/HD-DVDs
Duration : 1 h 44 min
Bit rate : 33.3 kb/s
Count of elements : 3034
Stream size : 24.9 MiB (1%)
Language : Hindi
Default : No
Forced : No

Text #3
ID : 6
Format : PGS
Codec ID : S_HDMV/PGS
Codec ID/Info : Picture based subtitle format used on BDs/HD-DVDs
Duration : 1 h 43 min
Bit rate : 167 kb/s
Count of elements : 5255
Stream size : 124 MiB (3%)
Title : Song PGS
Language : English
Default : No
Forced : No

Text #4
ID : 7
Format : PGS
Codec ID : S_HDMV/PGS
Codec ID/Info : Picture based subtitle format used on BDs/HD-DVDs
Duration : 1 h 36 min
Bit rate : 54.2 kb/s
Count of elements : 2359
Stream size : 37.5 MiB (1%)
Title : Commentary PGS
Language : English
Default : No
Forced : No

Menu
00:00:00.000 : en:Chapter 01
00:03:21.618 : en:Chapter 02
00:11:33.901 : en:Chapter 03
00:16:21.313 : en:Chapter 04
00:21:13.397 : en:Chapter 05
00:25:04.085 : en:Chapter 06
00:32:10.053 : en:Chapter 07
00:36:09.417 : en:Chapter 08
00:41:38.412 : en:Chapter 09
00:44:41.053 : en:Chapter 10
00:48:23.901 : en:Chapter 11
00:53:11.062 : en:Chapter 12
00:56:20.668 : en:Chapter 13
01:01:34.524 : en:Chapter 14
01:07:33.883 : en:Chapter 15
01:12:00.983 : en:Chapter 16
01:18:23.448 : en:Chapter 17
01:22:07.130 : en:Chapter 18
01:29:04.797 : en:Chapter 19
01:37:09.573 : en:Chapter 20














Discussion

Comments 0

Post Your Comment

Files in this torrent

FILENAMESIZE
Join US on FACEBOOK.txt56 B
Sample - The Greatest Showman 2017 1080p Bluray.mkv39.3 MB
SS/The Greatest Showman 2017 1080p Bluray (1).png1.7 MB
SS/The Greatest Showman 2017 1080p Bluray (10).png1.5 MB
SS/The Greatest Showman 2017 1080p Bluray (11).png1.7 MB
SS/The Greatest Showman 2017 1080p Bluray (12).png1.7 MB
SS/The Greatest Showman 2017 1080p Bluray (2).png1.4 MB
SS/The Greatest Showman 2017 1080p Bluray (3).png1.7 MB
SS/The Greatest Showman 2017 1080p Bluray (4).png1.6 MB
SS/The Greatest Showman 2017 1080p Bluray (5).png1 MB
SS/The Greatest Showman 2017 1080p Bluray (6).png1.2 MB
SS/The Greatest Showman 2017 1080p Bluray (7).png1.6 MB
SS/The Greatest Showman 2017 1080p Bluray (8).png1.3 MB
SS/The Greatest Showman 2017 1080p Bluray (9).png1.7 MB
The Greatest Showman 2017 1080p Bluray Dual Audio Hindi DD 5.1 English 6CH MAVI.mkv4.7 GB
Torrent_downloaded_from_Demonoid_-_www.demonoid.pw_.txt59 B
ZEE5.info.jpg62.1 KB

Alternative Torrents for 'Greatest Showman Bluray Dual Audio Hindi DD English CH MAVI'.

TORRENT NAME ADDED SIZE SEEDS PEERS HEALTH
5/17/2019 1.6 GB 3632 407
5/5/2019 1 GB 2353 441
5/15/2019 1.3 GB 2246 892
4/12/2019 1.7 GB 2209 187
4/22/2019 1.6 GB 2189 134
5/15/2019 2 GB 2024 769
5/5/2019 1.9 GB 2002 508
Yesterday 1.6 GB 1956 118
5/8/2019 1.7 GB 1937 115
4/22/2019 838 MB 1931 136
Yesterday 1.9 GB 1852 264
4/12/2019 891 MB 1756 142
5/16/2019 1.6 GB 1719 292
4/12/2019 2.1 GB 1693 61
5/14/2019 5.5 GB 1683 754