Extraction

Torrent Details

ExtractionExtraction

NAME
Extraction.torrent
CATEGORY
Movies
INFOHASH
d1ed2bbe49f3599bcb076d37429b4e37b6228d73
SIZE
3.9 GB in 6 files
ADDED
Uploaded on 11-07-2018 by our crawler pet called "Spidey".
SWARM
0 seeders & 0 peers
RATING
No votes yet.

Please login to vote for this torrent.


Description

[youtube]ZcN7hUKFgYU[/youtube]
IMDb Info for this film
General
Complete name : ExtractionExtraction T00-1.m4v
Format : MPEG-4
Format profile : Base Media / Version 2
Codec ID : mp42 (isom/iso2/avc1/mp41)
File size : 3.89 GiB
Duration : 1 h 22 min
Overall bit rate mode : Variable
Overall bit rate : 6 765 kb/s
Movie name : Extraction
Encoded date : UTC 2018-05-24 16:47:22
Tagged date : UTC 2018-05-24 16:47:22
Writing application : HandBrake 1.0.7 2017040900

Video
ID : 1
Format : AVC
Format/Info : Advanced Video Codec
Format profile : [email protected]
Format settings : CABAC / 4 Ref Frames
Format settings, CABAC : Yes
Format settings, RefFrames : 4 frames
Codec ID : avc1
Codec ID/Info : Advanced Video Coding
Duration : 1 h 22 min
Bit rate : 6 599 kb/s
Width : 1 920 pixels
Height : 1 080 pixels
Display aspect ratio : 16:9
Frame rate mode : Variable
Frame rate : 23.976 (24000/1001) FPS
Minimum frame rate : 23.974 FPS
Maximum frame rate : 23.981 FPS
Color space : YUV
Chroma subsampling : 4:2:0
Bit depth : 8 bits
Scan type : Progressive
Bits/(Pixel*Frame) : 0.133
Stream size : 3.80 GiB (98%)
Writing library : x264 core 148 r2708 86b7198
Encoding settings : cabac=1 / ref=2 / deblock=1:0:0 / analyse=0x1:0x111 / me=hex / subme=6 / psy=1 / psy_rd=1.00:0.00 / mixed_ref=1 / me_range=16 / chroma_me=1 / trellis=1 / 8x8dct=0 / cqm=0 / deadzone=21,11 / fast_pskip=1 / chroma_qp_offset=-2 / threads=3 / lookahead_threads=1 / sliced_threads=0 / nr=0 / decimate=1 / interlaced=0 / bluray_compat=0 / constrained_intra=0 / bframes=3 / b_pyramid=2 / b_adapt=1 / b_bias=0 / direct=1 / weightb=1 / open_gop=0 / weightp=1 / keyint=240 / keyint_min=24 / scenecut=40 / intra_refresh=0 / rc_lookahead=30 / rc=crf / mbtree=1 / crf=22.0 / qcomp=0.60 / qpmin=0 / qpmax=69 / qpstep=4 / vbv_maxrate=20000 / vbv_bufsize=25000 / crf_max=0.0 / nal_hrd=none / filler=0 / ip_ratio=1.40 / aq=1:1.00
Encoded date : UTC 2018-05-24 16:47:22
Tagged date : UTC 2018-05-24 16:47:22
Color range : Limited
Color primaries : BT.709
Transfer characteristics : BT.709
Matrix coefficients : BT.709
Menus : 3

Audio
ID : 2
Format : AAC
Format/Info : Advanced Audio Codec
Format profile : LC
Codec ID : mp4a-40-2
Duration : 1 h 22 min
Bit rate mode : Variable
Bit rate : 160 kb/s
Channel(s) : 2 channels
Channel positions : Front: L R
Sampling rate : 48.0 kHz
Frame rate : 46.875 FPS (1024 SPF)
Compression mode : Lossy
Stream size : 94.2 MiB (2%)
Title : Stereo / Stereo
Language : English
Default : Yes
Alternate group : 1
Encoded date : UTC 2018-05-24 16:47:22
Tagged date : UTC 2018-05-24 16:47:22
Menus : 3

Menu
ID : 3
Codec ID : text
Duration : 1 h 22 min
Language : English
Encoded date : UTC 2018-05-24 16:47:22
Tagged date : UTC 2018-05-24 16:47:22
Menu For : 1,2
00:00:00.000 : Chapter 1
00:08:22.419 : Chapter 2
00:10:11.903 : Chapter 3
00:15:34.100 : Chapter 4
00:22:12.623 : Chapter 5
00:27:31.859 : Chapter 6
00:32:59.769 : Chapter 7
00:38:20.465 : Chapter 8
00:42:50.234 : Chapter 9
00:48:30.408 : Chapter 10
00:52:02.036 : Chapter 11
00:54:57.044 : Chapter 12
01:00:14.361 : Chapter 13
01:04:38.500 : Chapter 14
01:07:11.361 : Chapter 15
01:16:44.433 : Chapter 16
Bit rate mode : VBR

Discussion

Comments 0

Post Your Comment

Files in this torrent

FILENAMESIZE
Extraction T00-1.m4v3.9 GB
Read me.rtf1.3 MB
screenshot808.jpg93 KB
screenshot809.jpg45.3 KB
screenshot810.jpg40.3 KB
screenshot813.jpg34.6 KB

Alternative Torrents for 'Extraction'.

TORRENT NAMEADDEDSIZESEEDSPEERSHEALTH
9/18/20203.6 GB435
9/3/2020482 MB00
9/3/2020835 MB00
8/31/20205.4 GB00
8/24/20204.6 GB00
7/17/20201.5 GB00
7/12/202013.3 GB00
6/18/20203 MB00
6/15/2020864 kB00
6/13/20202.2 GB00
6/11/20202.2 GB00
6/8/20203.2 GB00
6/6/202017 MB00
6/4/20201.6 GB00
6/2/20202 GB00