Warning! Do NOT Download Without a VPN!
Your IP Address is .   Location is United States
Your Internet Provider and Government can track your download activities! Hide your IP ADDRESS with a VPN!
We strongly recommend using a VPN service to anonymize your torrent downloads. It's FREE!
START YOUR FREE TRIAL NOW!

The Greatest Showman 2017 720p BluRay X264 Eng-Hindi AC3 DD 5 1 [Team SSX]

Torrent Details

The Greatest Showman 2017 720p BluRay x264 Eng-Hindi AC3 DD 5 1 [Team SSX]

NAME
The Greatest Showman 2017 720p BluRay x264 Eng-Hindi AC3 DD 5 1 [Team SSX].torrent
CATEGORY
Movies
INFOHASH
6890465366e3f07f2c78970ddde298b0a94c1261
SIZE
1.3 GB in 1 file
ADDED
Uploaded on 12-07-2018 by our crawler pet called "Spidey".
SWARM
0 seeders & 0 peers
RATING
No votes yet.

Please login to vote for this torrent.


Description

The Greatest Showman 2017 720p BluRay x264 Eng-Hindi AC3 DD 5.1 [Team SSX]





General

Format : Matroska
Format version : Version 4 / Version 2
File size : 1.27 GiB
Duration : 1 h 44 min
Overall bit rate : 1 738 kb/s


Video
ID : 1
Format : AVC
Format/Info : Advanced Video Codec
Format profile : [email protected]
Format settings : CABAC / 4 Ref Frames
Format settings, CABAC : Yes
Format settings, RefFrames : 4 frames
Codec ID : V_MPEG4/ISO/AVC
Duration : 1 h 44 min
Bit rate : 1 050 kb/s
Width : 1 280 pixels
Height : 534 pixels
Display aspect ratio : 2.40:1
Original display aspect ratio : 2.40:1
Frame rate mode : Constant
Frame rate : 23.976 (24000/1001) FPS
Color space : YUV
Chroma subsampling : 4:2:0
Bit depth : 8 bits
Scan type : Progressive
Bits/(Pixel*Frame) : 0.064
Stream size : 787 MiB (60%)
Default : Yes
Forced : No

Audio #1
ID : 2
Format : AAC
Format/Info : Advanced Audio Codec
Format profile : LC
Codec ID : A_AAC-2
Duration : 1 h 44 min
Bit rate : 144 kb/s
Channel(s) : 2 channels
Channel positions : Front: L R
Sampling rate : 48.0 kHz
Frame rate : 46.875 FPS (1024 SPF)
Compression mode : Lossy
Delay relative to video : -43 ms
Stream size : 108 MiB (8%)
Default : No
Forced : No

Audio #2
ID : 3
Format : AC-3
Format/Info : Audio Coding 3
Codec ID : A_AC3
Duration : 1 h 44 min
Bit rate mode : Constant
Bit rate : 448 kb/s
Channel(s) : 6 channels
Channel positions : Front: L C R, Side: L R, LFE
Sampling rate : 48.0 kHz
Frame rate : 31.250 FPS (1536 SPF)
Bit depth : 16 bits
Compression mode : Lossy
Delay relative to video : -43 ms
Stream size : 336 MiB (26%)
Language : Hindi
Service kind : Complete Main
Default : Yes
Forced : No

Text #1
ID : 4
Format : PGS
Muxing mode : zlib
Codec ID : S_HDMV/PGS
Codec ID/Info : Picture based subtitle format used on BDs/HD-DVDs
Duration : 1 h 43 min
Bit rate : 45.2 kb/s
Count of elements : 3456
Stream size : 33.4 MiB (3%)
Default : Yes
Forced : No

Text #2
ID : 5
Format : PGS
Muxing mode : zlib
Codec ID : S_HDMV/PGS
Codec ID/Info : Picture based subtitle format used on BDs/HD-DVDs
Duration : 1 h 44 min
Bit rate : 33.3 kb/s
Count of elements : 3034
Stream size : 24.9 MiB (2%)
Default : No
Forced : No

Text #3
ID : 6
Format : PGS
Muxing mode : zlib
Codec ID : S_HDMV/PGS
Codec ID/Info : Picture based subtitle format used on BDs/HD-DVDs
Duration : 1 h 43 min
Bit rate : 167 kb/s
Count of elements : 5255
Stream size : 124 MiB (9%)
Default : No
Forced : No






Discussion

Comments 0

Post Your Comment

Files in this torrent

FILENAMESIZE
The Greatest Showman 2017 720p BluRay x264 Eng-Hindi AC3 DD 5.1 [Team SSX].mkv1.3 GB

Alternative Torrents for 'Greatest Showman BluRay EngHindi AC DD'.

TORRENT NAME ADDED SIZE SEEDS PEERS HEALTH
5/5/2019 1 GB 2353 441
4/12/2019 1.7 GB 2209 187
4/22/2019 1.6 GB 2189 134
5/5/2019 1.9 GB 2002 508
4/22/2019 838 MB 1931 136
4/12/2019 891 MB 1756 142
4/12/2019 2.1 GB 1693 61
Yesterday 2.2 GB 1643 148
4/14/2019 855 MB 1597 122
4/13/2019 1.6 GB 1542 111
3/25/2019 973 MB 1426 131
4/12/2019 1.1 GB 1417 69
2/6/2019 2.2 GB 1406 30
3/16/2019 2.3 GB 1362 91
Yesterday 2 GB 1328 334