Warning! Do NOT Download Without a VPN!
Your IP Address is .   Location is United States
Your Internet Provider and Government can track your download activities! Hide your IP ADDRESS with a VPN!
We strongly recommend using a VPN service to anonymize your torrent downloads. It's FREE!
START YOUR FREE TRIAL NOW!

The Greatest Showman 2017 1080p BDrip X264 Hindi Dubbed Skyler Shd

Torrent Details

The Greatest Showman 2017 1080p BDrip x264 Hindi Dubbed Skyler Shd

NAME
The Greatest Showman 2017 1080p BDrip x264 Hindi Dubbed Skyler Shd.torrent
CATEGORY
Movies
INFOHASH
acb382ca76e48967e52a17dba315885e6e113e01
SIZE
2 GB in 13 files
ADDED
Uploaded on 12-07-2018 by our crawler pet called "Spidey".
SWARM
0 seeders & 0 peers
RATING
No votes yet.

Please login to vote for this torrent.


Description




The Greatest Showman 2017 1080p BDrip x264 Hindi Dubbed Skyler Shd

Video
ID : 2
Format : AVC
Format/Info : Advanced Video Codec
Format profile : [email protected]
Format settings : CABAC / 5 Ref Frames
Format settings, CABAC : Yes
Format settings, RefFrames : 5 frames
Codec ID : V_MPEG4/ISO/AVC
Duration : 1 h 44 min
Bit rate : 2 249 kb/s
Width : 1 920 pixels
Height : 800 pixels
Display aspect ratio : 2.40:1
Frame rate mode : Constant
Frame rate : 23.976 (24000/1001) FPS
Color space : YUV
Chroma subsampling : 4:2:0
Bit depth : 8 bits
Scan type : Progressive
Bits/(Pixel*Frame) : 0.061
Stream size : 1.65 GiB (83%)
Title : The Greatest Showman 2017
Language : English
Default : Yes
Forced : No
Color range : Limited

Audio #1
ID : 3
Format : AC-3
Format/Info : Audio Coding 3
Codec ID : A_AC3
Duration : 1 h 44 min
Bit rate mode : Constant
Bit rate : 448 kb/s
Channel(s) : 6 channels
Channel positions : Front: L C R, Side: L R, LFE
Sampling rate : 48.0 kHz
Frame rate : 31.250 FPS (1536 SPF)
Bit depth : 16 bits
Compression mode : Lossy
Delay relative to video : -1 ms
Stream size : 336 MiB (17%)
Title : 5.1 Skyler Shd
Language : Hindi
Service kind : Complete Main
Default : Yes
Forced : No

Text #1
ID : 1
Format : VobSub
Muxing mode : zlib
Codec ID : S_VOBSUB
Codec ID/Info : Picture based subtitle format used on DVDs
Duration : 1 h 43 min
Bit rate : 13.0 kb/s
Count of elements : 1864
Stream size : 9.60 MiB (0%)
Language : English
Default : No
Forced : No
















Quote:

Discussion

Comments 0

Post Your Comment

Files in this torrent

FILENAMESIZE
Sample.mkv31.6 MB
SS/0 (1).png1.1 MB
SS/0 (10).png1.1 MB
SS/0 (2).png1.4 MB
SS/0 (3).png501.8 KB
SS/0 (4).png744.7 KB
SS/0 (5).png1 MB
SS/0 (6).png655.4 KB
SS/0 (7).png1.5 MB
SS/0 (8).png1.2 MB
SS/0 (9).png650.5 KB
T.G.S.poster.jpg433 KB
The Greatest Showman 2017 1080p BDrip x264 Hindi Dubbed Skyler Shd.mkv2 GB

Alternative Torrents for 'Greatest Showman BDrip Hindi Dubbed Skyler Shd'.

There are no alternative torrents found.