Warning! Do NOT Download Without a VPN!
Your IP Address is 34.228.115.216.   Location is United States
Your Internet Provider and Government can track your download activities! Hide your IP ADDRESS with a VPN!
We strongly recommend using a VPN service to anonymize your torrent downloads. It's FREE!
START YOUR FREE TRIAL NOW!

The Greatest Showman 2017 1080p BluRay X264 Eng-Hindi AC3 DD 5 1 [Team SSX]

Torrent Details

The Greatest Showman 2017 1080p BluRay x264 Eng-Hindi AC3 DD 5 1 [Team SSX]

NAME
The Greatest Showman 2017 1080p BluRay x264 Eng-Hindi AC3 DD 5 1 [Team SSX].torrent
CATEGORY
Movies
INFOHASH
46096996eaff3d5001b04f72fce70d3726518903
SIZE
2.1 GB in 1 file
ADDED
Uploaded on 13-07-2018 by our crawler pet called "Spidey".
SWARM
0 seeders & 0 peers
RATING
No votes yet.

Please login to vote for this torrent.


Description

The Greatest Showman 2017 1080p BluRay x264 Eng-Hindi AC3 DD 5.1 [Team SSX]





General

Format : Matroska
Format version : Version 4 / Version 2
File size : 2.08 GiB
Duration : 1 h 44 min
Overall bit rate : 2 838 kb/s


Video
ID : 1
Format : AVC
Format/Info : Advanced Video Codec
Format profile : [email protected]
Format settings : CABAC / 4 Ref Frames
Format settings, CABAC : Yes
Format settings, RefFrames : 4 frames
Codec ID : V_MPEG4/ISO/AVC
Duration : 1 h 44 min
Bit rate : 2 150 kb/s
Width : 1 920 pixels
Height : 800 pixels
Display aspect ratio : 2.40:1
Frame rate mode : Constant
Frame rate : 23.976 (24000/1001) FPS
Color space : YUV
Chroma subsampling : 4:2:0
Bit depth : 8 bits
Scan type : Progressive
Bits/(Pixel*Frame) : 0.058
Stream size : 1.57 GiB (76%)


Default : Yes
Forced : No

Audio #1
ID : 2
Format : AAC
Format/Info : Advanced Audio Codec
Format profile : LC
Codec ID : A_AAC-2
Duration : 1 h 44 min
Bit rate : 144 kb/s
Channel(s) : 2 channels
Channel positions : Front: L R
Sampling rate : 48.0 kHz
Frame rate : 46.875 FPS (1024 SPF)
Compression mode : Lossy
Delay relative to video : -43 ms
Stream size : 108 MiB (5%)
Language : English
Default : No
Forced : No

Audio #2
ID : 3
Format : AC-3
Format/Info : Audio Coding 3
Codec ID : A_AC3
Duration : 1 h 44 min
Bit rate mode : Constant
Bit rate : 448 kb/s
Channel(s) : 6 channels
Channel positions : Front: L C R, Side: L R, LFE
Sampling rate : 48.0 kHz
Frame rate : 31.250 FPS (1536 SPF)
Bit depth : 16 bits
Compression mode : Lossy
Delay relative to video : -43 ms
Stream size : 336 MiB (16%)
Language : Hindi
Service kind : Complete Main
Default : Yes
Forced : No

Text #1
ID : 4
Format : PGS
Muxing mode : zlib
Codec ID : S_HDMV/PGS
Codec ID/Info : Picture based subtitle format used on BDs/HD-DVDs
Duration : 1 h 43 min
Bit rate : 45.2 kb/s
Count of elements : 3456
Stream size : 33.4 MiB (2%)
Default : Yes
Forced : No

Text #2
ID : 5
Format : PGS
Muxing mode : zlib
Codec ID : S_HDMV/PGS
Codec ID/Info : Picture based subtitle format used on BDs/HD-DVDs
Duration : 1 h 44 min
Bit rate : 33.3 kb/s
Count of elements : 3034
Stream size : 24.9 MiB (1%)
Language : Hindi
Default : No
Forced : No

Text #3
ID : 6
Format : PGS
Muxing mode : zlib
Codec ID : S_HDMV/PGS
Codec ID/Info : Picture based subtitle format used on BDs/HD-DVDs
Duration : 1 h 43 min
Bit rate : 167 kb/s
Count of elements : 5255
Stream size : 124 MiB (6%)
Default : No
Forced : No




Discussion

Comments 0

Post Your Comment

Files in this torrent

FILENAMESIZE
The Greatest Showman 2017 1080p BluRay x264 Eng-Hindi AC3 DD 5.1 [Team SSX].mkv2.1 GB

Alternative Torrents for 'Greatest Showman BluRay EngHindi AC DD'.

TORRENT NAME ADDED SIZE SEEDS PEERS HEALTH
2/16/2019 1.8 GB 2852 1054
12/17/2018 760 MB 2727 109
12/17/2018 1.4 GB 2500 47
2/18/2019 904 MB 2468 1042
2/16/2019 957 MB 2457 585
2/9/2019 1.9 GB 2223 190
12/5/2018 1.8 GB 2166 80
2/20/2019 2.1 GB 2160 746
2/10/2019 1000 MB 1872 130
2/20/2019 1.1 GB 1839 865
2/18/2019 1.7 GB 1832 717
2/1/2019 2.2 GB 1714 168
2/6/2019 2.2 GB 1713 83
1/24/2019 2.2 GB 1678 161
12/1/2018 1.6 GB 1646 130