Warning! Do NOT Download Without a VPN!
Your IP Address is .   Location is United States
Your Internet Provider and Government can track your download activities! Hide your IP ADDRESS with a VPN!
We strongly recommend using a VPN service to anonymize your torrent downloads. It's FREE!
START YOUR FREE TRIAL NOW!

The Greatest Showman 2017 720p BluRay X264 Dual Audio [Hindi DD 5 1 - English 2 0] ESub [MW]

Torrent Details

The Greatest Showman 2017 720p BluRay x264 Dual Audio [Hindi DD 5 1 - English 2 0] ESub [MW]

NAME
The Greatest Showman 2017 720p BluRay x264 Dual Audio [Hindi DD 5 1 - English 2 0] ESub [MW].torrent
CATEGORY
Movies
INFOHASH
5e40f62bdd23a0465bfe9479180c5be92a919e4c
SIZE
1 GB in 1 file
ADDED
Uploaded on 13-07-2018 by our crawler pet called "Spidey".
SWARM
0 seeders & 0 peers
RATING
No votes yet.

Please login to vote for this torrent.


Description

General
Format : Matroska
Format version : Version 4 / Version 2
File size : 1.04 GiB
Duration : 1 h 44 min
Overall bit rate : 1 420 kb/s

Video
ID : 1
Format : AVC
Format/Info : Advanced Video Codec
Format profile : [email protected]
Format settings : CABAC / 4 Ref Frames
Format settings, CABAC : Yes
Format settings, RefFrames : 4 frames
Codec ID : V_MPEG4/ISO/AVC
Duration : 1 h 44 min
Bit rate : 1 050 kb/s
Width : 1 280 pixels
Height : 534 pixels
Display aspect ratio : 2.40:1
Original display aspect ratio : 2.40:1
Frame rate mode : Constant
Frame rate : 23.976 (24000/1001) FPS
Color space : YUV
Chroma subsampling : 4:2:0
Bit depth : 8 bits
Scan type : Progressive
Bits/(Pixel*Frame) : 0.064
Stream size : 787 MiB (74%)
Writing library : x264 core 155
Default : Yes
Forced : No

Audio #1
ID : 2
Format : AC-3
Format/Info : Audio Coding 3
Codec ID : A_AC3
Duration : 1 h 44 min
Bit rate mode : Constant
Bit rate : 224 kb/s
Channel(s) : 6 channels
Channel positions : Front: L C R, Side: L R, LFE
Sampling rate : 48.0 kHz
Frame rate : 31.250 FPS (1536 SPF)
Bit depth : 16 bits
Compression mode : Lossy
Delay relative to video : -43 ms
Stream size : 168 MiB (16%)
Language : Hindi
Service kind : Complete Main
Default : Yes
Forced : No

Audio #2
ID : 3
Format : AAC
Format/Info : Advanced Audio Codec
Format profile : LC
Codec ID : A_AAC-2
Duration : 1 h 44 min
Bit rate : 144 kb/s
Channel(s) : 2 channels
Channel positions : Front: L R
Sampling rate : 48.0 kHz
Frame rate : 46.875 FPS (1024 SPF)
Compression mode : Lossy
Delay relative to video : -43 ms
Stream size : 108 MiB (10%)
Language : English
Default : No
Forced : No

Text
ID : 4
Format : UTF-8
Codec ID : S_TEXT/UTF8
Codec ID/Info : UTF-8 Plain Text
Duration : 1 h 43 min
Bit rate : 77 b/s
Count of elements : 1864
Stream size : 58.7 KiB (0%)
Default : Yes
Forced : No











Discussion

Comments 0

Post Your Comment

Files in this torrent

FILENAMESIZE
The Greatest Showman 2017 720p BluRay x264 Dual Audio [Hindi DD 5.1 - English 2.0] ESub [MW].mkv1 GB

Alternative Torrents for 'Greatest Showman BluRay Dual Audio ESub'.

TORRENT NAME ADDED SIZE SEEDS PEERS HEALTH
7/10/2018 1 GB 0 0
7/10/2018 651 MB 0 0
7/12/2018 583 MB 0 0
7/12/2018 1.2 GB 0 0
7/15/2018 1004 MB 0 0
7/16/2018 2 GB 0 0