Warning! Do NOT Download Without a VPN!
Your IP Address is .   Location is United States
Your Internet Provider and Government can track your download activities! Hide your IP ADDRESS with a VPN!
We strongly recommend using a VPN service to anonymize your torrent downloads. It's FREE!
START YOUR FREE TRIAL NOW!

The Greatest Showman 2017 1080p WEB-DL DD 5 1 X264 ESub

Torrent Details

The Greatest Showman 2017 1080p WEB-DL DD 5 1 x264 ESub

NAME
The Greatest Showman 2017 1080p WEB-DL DD 5 1 x264 ESub.torrent
CATEGORY
Movies
INFOHASH
8765f40287d2337988685150dc62418a27724840
SIZE
1.7 GB in 1 file
ADDED
Uploaded on 14-07-2018 by our crawler pet called "Spidey".
SWARM
0 seeders & 0 peers
RATING
No votes yet.

Please login to vote for this torrent.


Description

General
Format : Matroska
Format version : Version 4 / Version 2
File size : 1.67 GiB
Duration : 1 h 44 min
Overall bit rate : 2 278 kb/s

Video
ID : 1
Format : AVC
Format/Info : Advanced Video Codec
Format profile : [email protected]
Format settings : CABAC / 4 Ref Frames
Format settings, CABAC : Yes
Format settings, RefFrames : 4 frames
Codec ID : V_MPEG4/ISO/AVC
Duration : 1 h 44 min
Bit rate : 1 900 kb/s
Width : 1 920 pixels
Height : 808 pixels
Display aspect ratio : 2.40:1
Frame rate mode : Constant
Frame rate : 23.976 (24000/1001) FPS
Color space : YUV
Chroma subsampling : 4:2:0
Bit depth : 8 bits
Scan type : Progressive
Bits/(Pixel*Frame) : 0.051
Stream size : 1.38 GiB (83%)
Writing library : x264 core 148 r2708 86b7198
Default : Yes
Forced : No

Audio
ID : 2
Format : AC-3
Format/Info : Audio Coding 3
Codec ID : A_AC3
Duration : 1 h 44 min
Bit rate mode : Constant
Bit rate : 384 kb/s
Channel(s) : 6 channels
Channel positions : Front: L C R, Side: L R, LFE
Sampling rate : 48.0 kHz
Frame rate : 31.250 FPS (1536 SPF)
Bit depth : 16 bits
Compression mode : Lossy
Delay relative to video : 78 ms
Stream size : 288 MiB (17%)
Language : English
Service kind : Complete Main
Default : Yes
Forced : No

Text
ID : 3
Format : UTF-8
Codec ID : S_TEXT/UTF8
Codec ID/Info : UTF-8 Plain Text
Duration : 1 h 44 min
Bit rate : 67 b/s
Count of elements : 1774
Stream size : 51.7 KiB (0%)
Language : English
Default : No
Forced : No











Discussion

Comments 0

Post Your Comment

Files in this torrent

FILENAMESIZE
The Greatest Showman 2017 1080p WEB-DL DD 5.1 x264 ESub.mkv1.7 GB

Alternative Torrents for 'Greatest Showman DD ESub'.

TORRENT NAME ADDED SIZE SEEDS PEERS HEALTH
3/20/2018 1.3 GB 0 0
7/13/2018 1.2 GB 0 0
7/13/2018 1 GB 0 0
7/16/2018 2 GB 0 0