Warning! Do NOT Download Without a VPN!
Your IP Address is .   Location is United States
Your Internet Provider and Government can track your download activities! Hide your IP ADDRESS with a VPN!
We strongly recommend using a VPN service to anonymize your torrent downloads. It's FREE!
START YOUR FREE TRIAL NOW!

The Greatest Showman (2017) 720p BluRay X265 HEVC Dual Audio- Msubs ~ Ranvijay

Torrent Details

The Greatest Showman (2017) 720p BluRay x265 HEVC Dual Audio- Msubs ~ Ranvijay

NAME
The Greatest Showman (2017) 720p BluRay x265 HEVC Dual Audio- Msubs ~ Ranvijay.torrent
CATEGORY
Movies
INFOHASH
0908da85fbe1e6c9bd9698b0fcb7eda7e6f44674
SIZE
1019 MB in 2 files
ADDED
Uploaded on 16-07-2018 by our crawler pet called "Spidey".
SWARM
0 seeders & 0 peers
RATING
No votes yet.

Please login to vote for this torrent.


Description




The Greatest Showman (2017) 720p BluRay x265 HEVC Dual Audio [Hindi DD5.1 - English DD2.0] - Msubs ~ Ranvijay
Thanks To Hammer For Hindi Audio




Buy RDP Online


Format : Matroska
Format version : Version 4 / Version 2
File size : 1 019 MiB
Duration : 1 h 44 min
Overall bit rate : 1 360 kb/s
Movie name : The Greatest Showman (2017) 720p BLuRay x265 HEVC Dual Audio [Hindi DD5.1 - English DD2.0] - Msubs ~ Ranvijay

Video
Duration : 1 h 44 min
Bit rate : 1 027 kb/s
Width : 1 280 pixels
Height : 536 pixels
Display aspect ratio : 2.40:1
Frame rate mode : Constant
Frame rate : 23.976 (24000/1001) FPS
Stream size : 770 MiB (76%)
Title : ~Ranvijay~
Default : Yes
Forced : No

Audio #1
ID : 2
Format : AAC
Format/Info : Advanced Audio Codec
Format profile : HE-AAC / LC
Format settings : Explicit
Codec ID : A_AAC-2
Duration : 1 h 44 min
Bit rate : 72.0 kb/s
Channel(s) : 2 channels
Channel positions : Front: L R
Sampling rate : 48.0 kHz / 24.0 kHz
Frame rate : 23.438 FPS (1024 SPF)
Compression mode : Lossy
Delay relative to video : 23 ms
Stream size : 53.1 MiB (5%)
Title : ~Ranvijay~
Language : English
Default : No
Forced : No

Audio #2
ID : 3
Format : AC-3
Format/Info : Audio Coding 3
Codec ID : A_AC3
Duration : 1 h 44 min
Bit rate mode : Constant
Bit rate : 224 kb/s
Channel(s) : 6 channels
Channel positions : Front: L C R, Side: L R, LFE
Sampling rate : 48.0 kHz
Frame rate : 31.250 FPS (1536 SPF)
Bit depth : 16 bits
Compression mode : Lossy
Stream size : 168 MiB (16%)
Title : ~Ranvijay~
Language : Hindi
Service kind : Complete Main
Default : Yes
Forced : No

Text #1
ID : 4
Format : PGS
Muxing mode : zlib
Codec ID : S_HDMV/PGS
Codec ID/Info : Picture based subtitle format used on BDs/HD-DVDs
Duration : 1 h 43 min
Bit rate : 45.2 kb/s
Count of elements : 3456
Stream size : 33.4 MiB (3%)
Title : ~Ranvijay~
Language : Hindi
Default : Yes
Forced : No

Text #2
ID : 5
Format : PGS
Muxing mode : zlib
Codec ID : S_HDMV/PGS
Codec ID/Info : Picture based subtitle format used on BDs/HD-DVDs
Duration : 1 h 44 min
Bit rate : 33.3 kb/s
Count of elements : 3034
Stream size : 24.9 MiB (2%)
Title : ~Ranvijay~
Language : English
Default : No
Forced : No














Discussion

Comments 0

Post Your Comment

Files in this torrent

FILENAMESIZE
The Greatest Showman (2017) 720p BluRay x265 HEVC Dual Audio [Hindi DD5.1 - English DD2.0] - Msubs ~ Ranvijay.mkv1019.3 MB
Torrent Seeded From SpecialRDP.txt0 B

Alternative Torrents for 'Greatest Showman BluRay HEVC Dual Audio Msubs Ranvijay'.

There are no alternative torrents found.