The Commodore Story 2018 HDRip XviD AC3 With Sample

Torrent Details

The Commodore Story 2018 HDRip XviD AC3 With Sample

NAME
The Commodore Story 2018 HDRip XviD AC3 With Sample.torrent
CATEGORY
Movies
INFOHASH
d4017c9294dfe8d3a7e83d4e7cebe42fbb21c461
SIZE
1.4 GB in 2 files
ADDED
Uploaded on 30-07-2018 by our crawler pet called "Spidey".
SWARM
0 seeders & 0 peers
RATING
No votes yet.

Please login to vote for this torrent.


Description

******************************Thumbnail:**********************



******************************Screenshots:********************

Screenshot 1

Screenshot 2

Screenshot 3

Screenshot 4

Screenshot 5

Screenshot 6

Screenshot 7

Screenshot 8

Screenshot 9

Screenshot 0

**************************************************************

Complete name : The.Commodore.Story.2018.HDRip.XviD.AC3.With.Sample.LLG.mp4
Format : MPEG-4
Format profile : Base Media
Codec ID : isom (isom/iso2/avc1/mp41)
File size : 1.35 GiB
Duration : 2 h 11 min
Overall bit rate : 1 479 kb/s

Video
ID : 1
Format : AVC
Format/Info : Advanced Video Codec
Format profile : [email protected]
Format settings : CABAC / 4 Ref Frames
Format settings, CABAC : Yes
Format settings, RefFrames : 4 frames
Codec ID : avc1
Codec ID/Info : Advanced Video Coding
Duration : 2 h 11 min
Bit rate : 1 200 kb/s
Width : 720 pixels
Height : 400 pixels
Display aspect ratio : 16:9
Frame rate mode : Constant
Frame rate : 25.000 FPS
Color space : YUV
Chroma subsampling : 4:2:0
Bit depth : 8 bits
Scan type : Progressive
Bits/(Pixel*Frame) : 0.167
Stream size : 1.12 GiB (82%)

Audio
ID : 2
Format : AC-3
Format/Info : Audio Coding 3
Codec ID : ac-3
Duration : 2 h 11 min
Bit rate mode : Constant
Bit rate : 256 kb/s
Channel(s) : 2 channels
Channel positions : Front: L R
Sampling rate : 48.0 kHz
Frame rate : 31.250 FPS (1536 SPF)
Bit depth : 16 bits
Compression mode : Lossy
Stream size : 240 MiB (17%)
Title : Stereo
Language : English
Service kind : Complete Main
Default : Yes
Alternate group : 1

**************************************************************

Discussion

Comments 0

Post Your Comment

Files in this torrent

FILENAMESIZE
Sample.mkv9.1 MB
The.Commodore.Story.2018.HDRip.XviD.AC3.With.Sample.LLG.mp41.4 GB

Alternative Torrents for 'Commodore Story With Sample'.

TORRENT NAMEADDEDSIZESEEDSPEERSHEALTH
7/30/20181.4 GB00
7/7/2018706 MB00