ConAir (1997) 720p BluRay X264 Dual Audio [Hindi - English] DD2.0 - Esubs ~ Ranvijay

Torrent Details

ConAir (1997) 720p BluRay x264 Dual Audio [Hindi - English] DD2.0 - Esubs ~ RanvijayConAir (1997) 720p BluRay x264 Dual Audio [Hindi - English] DD2.0 - Esubs ~ Ranvijay

NAME
ConAir (1997) 720p BluRay x264 Dual Audio [Hindi - English] DD2.0 - Esubs ~ Ranvijay.torrent
CATEGORY
Movies
INFOHASH
6822d331c847544ab825f4ababa8e2b3772ec55a
SIZE
1.1 GB in 2 files
ADDED
Uploaded on 07-08-2018 by our crawler pet called "Spidey".
SWARM
0 seeders & 0 peers
RATING
No votes yet.

Please login to vote for this torrent.


Description

Format                                   : Matroska
Format version                           : Version 4 / Version 2
File size                                : 1.06 GiB
Duration                                 : 1 h 55 min
Overall bit rate                         : 1 316 kb/s
Movie name                               : ConAir (1997) 720p BluRay x264 Dual Audio [Hindi - English] DD2.0 - Esubs ~ Ranvijay

Video
ID                                       : 1
Format                                   : AVC
Format/Info                              : Advanced Video Codec
Duration                                 : 1 h 55 min
Bit rate                                 : 994 kb/s
Width                                    : 1 280 pixels
Height                                   : 544 pixels
Display aspect ratio                     : 2.35:1
Frame rate mode                          : Constant
Frame rate                               : 23.976 (24000/1001) FPS
Color space                              : YUV
Chroma subsampling                       : 4:2:0
Bit depth                                : 8 bits
Scan type                                : Progressive
Bits/(Pixel*Frame)                       : 0.060
Stream size                              : 821 MiB (76%)
Language                                 : English
Default                                  : Yes
Forced                                   : No

Audio #1
ID                                       : 2
Format                                   : AC-3
Format/Info                              : Audio Coding 3
Codec ID                                 : A_AC3
Duration                                 : 1 h 55 min
Bit rate mode                            : Constant
Bit rate                                 : 224 kb/s
Channel(s)                               : 2 channels
Channel positions                        : Front: L R
Sampling rate                            : 48.0 kHz
Frame rate                               : 31.250 FPS (1536 SPF)
Bit depth                                : 16 bits
Compression mode                         : Lossy
Delay relative to video                  : 200 ms
Stream size                              : 185 MiB (17%)
Title                                    : ~Ranvijay~
Language                                 : Hindi
Service kind                             : Complete Main
Default                                  : Yes
Forced                                   : Yes

Audio #2
ID                                       : 3
Format                                   : AAC
Format/Info                              : Advanced Audio Codec
Format profile                           : LC
Codec ID                                 : A_AAC-2
Duration                                 : 1 h 55 min
Bit rate                                 : 89.4 kb/s
Channel(s)                               : 2 channels
Channel positions                        : Front: L R
Sampling rate                            : 48.0 kHz
Frame rate                               : 46.875 FPS (1024 SPF)
Compression mode                         : Lossy
Delay relative to video                  : 9 ms
Stream size                              : 73.8 MiB (7%)
Title                                    : ~Ranvijay~
Language                                 : English
Default                                  : No
Forced                                   : No

Text #1
ID                                       : 4
Format                                   : VobSub
Muxing mode                              : zlib
Codec ID                                 : S_VOBSUB
Codec ID/Info                            : Picture based subtitle format used on DVDs
Duration                                 : 1 h 54 min
Bit rate                                 : 10.3 kb/s
Count of elements                        : 1225
Stream size                              : 8.44 MiB (1%)
Title                                    : ~Ranvijay~
Language                                 : English
Default                                  : Yes
Forced                                   : No

Text #2
ID                                       : 5
Format                                   : UTF-8
Codec ID                                 : S_TEXT/UTF8
Codec ID/Info                            : UTF-8 Plain Text
Duration                                 : 1 h 48 min
Bit rate                                 : 61 b/s
Count of elements                        : 1192
Stream size                              : 48.6 KiB (0%)
Title                                    : ~Ranvijay~
Language                                 : English
Default                                  : No
Forced                                   : No

Menu
00:00:00.000                             : en:Chapter 1
00:10:03.394                             : en:Chapter 2
00:28:25.912                             : en:Chapter 3
00:42:52.528                             : en:Chapter 4
00:57:22.981                             : en:Chapter 5
01:09:02.596                             : en:Chapter 6
01:22:53.301                             : en:Chapter 7
01:34:51.143                             : en:Chapter 8
01:40:36.572                             : en:Chapter 9
01:48:10.525                             : en:Chapter 10
01:55:26.169                             : en:Chapter 11

Discussion

Comments 0

Post Your Comment

Files in this torrent

FILENAMESIZE
ConAir (1997) 720p BluRay x264 Dual Audio [Hindi - English] DD2.0 - Esubs ~ Ranvijay.mkv1.1 GB
Sample - ConAir (1997) 720p BluRay x264 Dual Audio [Hindi - English] DD2.0 - Esubs ~ Ranvijay.mkv15.2 MB

Alternative Torrents for 'ConAir BluRay Dual Audio Hindi English DD. Esubs Ranvijay'.

There are no alternative torrents found.