12 Monkeys Season 3 1080p Bluray BDrip X265 AAC 5.1 D0ct0rLew[UTR-HD]

Torrent Details

12 Monkeys Season 3  1080p Bluray BDrip x265 AAC 5.1 D0ct0rLew[UTR-HD]

NAME
12 Monkeys Season 3 1080p Bluray BDrip x265 AAC 5.1 D0ct0rLew[UTR-HD].torrent
CATEGORY
Television
INFOHASH
42061b5d311b24f59618d91e37e114d990b938d8
SIZE
33.2 GB in 10 files
ADDED
Uploaded on 21-08-2018 by our crawler pet called "Spidey".
SWARM
0 seeders & 1 peers
RATING
No votes yet.

Please login to vote for this torrent.


Description





Screenshots

Source






Encode





I want to thank Kira for his help with the subs. He's our newest member to UTRSubs.



Media Information



Unique ID                                : 252226478579674700361803446994688014308 (0xBDC10D8368BC6EB182FFF886CDBFF7E4)

Complete name                            :12 Monkeys Season 3  1080p Bluray BDrip x265 AAC 5.1 D0ct0rLew[UTR-HD]12 Monkeys S03E10 Witness 1080p Bluray BDrip x265 AAC 5.1 D0ct0rLew[UTR-HD].mkv

Format                                   : Matroska

Format version                           : Version 4 / Version 2

File size                                : 3.54 GiB

Duration                                 : 45 min 39 s

Overall bit rate                         : 11.1 Mb/s

Encoded date                             : UTC 2018-07-26 02:10:30

Writing application                      : mkvmerge v15.0.0 ('Duel with the Devil') 64-bit

Writing library                          : libebml v1.3.5 + libmatroska v1.4.5



Video

ID                                       : 3

Format                                   : HEVC

Format/Info                              : High Efficiency Video Coding

Format profile                           : Main [email protected]@Main

Codec ID                                 : V_MPEGH/ISO/HEVC

Duration                                 : 45 min 39 s

Bit rate                                 : 10.7 Mb/s

Width                                    : 1 920 pixels

Height                                   : 1 080 pixels

Display aspect ratio                     : 16:9

Frame rate mode                          : Constant

Frame rate                               : 23.976 (24000/1001) FPS

Color space                              : YUV

Chroma subsampling                       : 4:2:0

Bit depth                                : 10 bits

Bits/(Pixel*Frame)                       : 0.215

Stream size                              : 3.41 GiB (96%)

Writing library                          : x265 2.7+25-e1ed4d609b52:[Windows][MSVC 1914][64 bit] 10bit

Encoding settings                        : cpuid=1050111 / frame-threads=3 / numa-pools=8 / wpp / no-pmode / no-pme / no-psnr / no-ssim / log-level=2 / input-csp=1 / input-res=1920x1080 / interlace=0 / total-frames=65683 / level-idc=0 / high-tier=1 / uhd-bd=0 / ref=4 / no-allow-non-conformance / no-repeat-headers / annexb / no-aud / no-hrd / info / hash=0 / no-temporal-layers / open-gop / min-keyint=23 / keyint=250 / gop-lookahead=0 / bframes=8 / b-adapt=2 / b-pyramid / bframe-bias=0 / rc-lookahead=90 / lookahead-slices=4 / scenecut=40 / radl=0 / no-intra-refresh / ctu=64 / min-cu-size=8 / no-rect / no-amp / max-tu-size=32 / tu-inter-depth=2 / tu-intra-depth=2 / limit-tu=4 / rdoq-level=2 / dynamic-rd=0.00 / no-ssim-rd / signhide / no-tskip / nr-intra=0 / nr-inter=0 / no-constrained-intra / no-strong-intra-smoothing / max-merge=3 / limit-refs=2 / limit-modes / me=3 / subme=3 / merange=92 / temporal-mvp / weightp / weightb / no-analyze-src-pics / deblock=-1:-1 / no-sao / no-sao-non-deblock / rd=6 / no-early-skip / no-rskip / no-fast-intra / no-tskip-fast / no-cu-lossless / b-intra / no-splitrd-skip / rdpenalty=0 / psy-rd=1.20 / psy-rdoq=1.00 / no-rd-refine / no-lossless / cbqpoffs=1 / crqpoffs=1 / rc=crf / crf=18.1 / qcomp=0.60 / qpstep=4 / stats-write=0 / stats-read=0 / ipratio=1.40 / pbratio=1.30 / aq-mode=3 / aq-strength=1.40 / cutree / zone-count=0 / no-strict-cbr / qg-size=32 / no-rc-grain / qpmax=69 / qpmin=0 / no-const-vbv / sar=0 / overscan=0 / videoformat=5 / range=0 / colorprim=2 / transfer=2 / colormatrix=2 / chromaloc=0 / display-window=0 / max-cll=0,0 / min-luma=0 / max-luma=1023 / log2-max-poc-lsb=8 / vui-timing-info / vui-hrd-info / slices=1 / no-opt-qp-pps / no-opt-ref-list-length-pps / no-multi-pass-opt-rps / scenecut-bias=0.05 / no-opt-cu-delta-qp / no-aq-motion / no-hdr / no-hdr-opt / no-dhdr10-opt / no-idr-recovery-sei / analysis-reuse-level=5 / scale-factor=0 / refine-intra=0 / refine-inter=0 / refine-mv=0 / no-limit-sao / ctu-info=0 / no-lowpass-dct / refine-mv-type=0 / copy-pic=1 / max-ausize-factor=1.0 / no-dynamic-refine / no-single-sei

Default                                  : Yes

Forced                                   : No



Audio

ID                                       : 2

Format                                   : AAC

Format/Info                              : Advanced Audio Codec

Format profile                           : LC

Codec ID                                 : A_AAC-2

Duration                                 : 45 min 37 s

Bit rate                                 : 420 kb/s

Channel(s)                               : 6 channels

Channel positions                        : Front: L C R, Side: L R, LFE

Sampling rate                            : 48.0 kHz

Frame rate                               : 46.875 FPS (1024 SPF)

Compression mode                         : Lossy

Delay relative to video                  : 9 ms

Stream size                              : 137 MiB (4%)

Default                                  : Yes

Forced                                   : No



Text

ID                                       : 1

Format                                   : UTF-8

Codec ID                                 : S_TEXT/UTF8

Codec ID/Info                            : UTF-8 Plain Text

Duration                                 : 45 min 15 s

Bit rate                                 : 53 b/s

Count of elements                        : 911

Stream size                              : 17.7 KiB (0%)

Title                                    : UTRSubs by Kira

Language                                 : English

Default                                  : Yes

Forced                                   : No



Menu

00:00:00.000                             : en:Chapter 1

00:05:33.792                             : en:Chapter 2

00:08:55.577                             : en:Chapter 3

00:18:16.554                             : en:Chapter 4

00:24:10.199                             : en:Chapter 5

00:28:54.107                             : en:Chapter 6

00:40:55.119                             : en:Chapter 7

00:44:08.145                             : en:Chapter 8



Source Media Information



Unique ID                                : 212057516834870464575787212145098428506 (0x9F88CACB07462119FB9CD20EE113105A)

Complete name                            : 12.Monkeys.S03.1080p.BluRay.REMUX.AVC.TrueHD.5.1-EPSiLON12.Monkeys.S03E10.Witness.1080p.BluRay.REMUX.AVC.TrueHD.5.1-EPSiLON.mkv

Format                                   : Matroska

Format version                           : Version 4 / Version 2

File size                                : 8.69 GiB

Duration                                 : 45 min 38 s

Overall bit rate mode                    : Variable

Overall bit rate                         : 27.3 Mb/s

Encoded date                             : UTC 2018-07-03 19:10:20

Writing application                      : mkvmerge v24.0.0 ('Beyond The Pale') 64-bit

Writing library                          : libebml v1.3.6 + libmatroska v1.4.9



Video

ID                                       : 1

Format                                   : AVC

Format/Info                              : Advanced Video Codec

Format profile                           : [email protected]

Format settings                          : CABAC / 3 Ref Frames

Format settings, CABAC                   : Yes

Format settings, RefFrames               : 3 frames

Codec ID                                 : V_MPEG4/ISO/AVC

Duration                                 : 45 min 38 s

Bit rate mode                            : Variable

Bit rate                                 : 23.0 Mb/s

Maximum bit rate                         : 35.0 Mb/s

Width                                    : 1 920 pixels

Height                                   : 1 080 pixels

Display aspect ratio                     : 16:9

Frame rate mode                          : Constant

Frame rate                               : 23.976 (23976/1000) FPS

Original frame rate                      : 23.976 (24000/1001) FPS

Standard                                 : NTSC

Color space                              : YUV

Chroma subsampling                       : 4:2:0

Bit depth                                : 8 bits

Scan type                                : Progressive

Bits/(Pixel*Frame)                       : 0.462

Stream size                              : 7.33 GiB (84%)

Title                                    : MPEG-4 AVC Video / 22992 kbps / 1080p / 23.976 fps / 16:9 / High Profile 4.1

Language                                 : English

Default                                  : Yes

Forced                                   : No

Color range                              : Limited

Color primaries                          : BT.709

Transfer characteristics                 : BT.709

Matrix coefficients                      : BT.709



Audio #1

ID                                       : 2

Format                                   : TrueHD

Codec ID                                 : A_TRUEHD

Duration                                 : 45 min 37 s

Bit rate mode                            : Variable

Bit rate                                 : 3 554 kb/s

Maximum bit rate                         : 5 199 kb/s

Channel(s)                               : 6 channels

Channel positions                        : Front: L C R, Side: L R, LFE

Sampling rate                            : 48.0 kHz

Frame rate                               : 1 200.000 FPS (40 SPF)

Compression mode                         : Lossless

Stream size                              : 1.13 GiB (13%)

Title                                    : Dolby TrueHD Audio / 5.1 / 48 kHz / 3552 kbps / 24-bit

Language                                 : English

Default                                  : Yes

Forced                                   : No



Audio #2

ID                                       : 3

Format                                   : AC-3

Format/Info                              : Audio Coding 3

Codec ID                                 : A_AC3

Duration                                 : 45 min 37 s

Bit rate mode                            : Constant

Bit rate                                 : 640 kb/s

Channel(s)                               : 6 channels

Channel positions                        : Front: L C R, Side: L R, LFE

Sampling rate                            : 48.0 kHz

Frame rate                               : 31.250 FPS (1536 SPF)

Bit depth                                : 16 bits

Compression mode                         : Lossy

Stream size                              : 209 MiB (2%)

Title                                    : Compatibility Track / Dolby Digital Audio / 5.1-EX / 48 kHz / 640 kbps

Language                                 : English

Service kind                             : Complete Main

Default                                  : No

Forced                                   : No



Menu

00:00:00.000                             : en:Chapter 1

00:05:33.792                             : en:Chapter 2

00:08:55.577                             : en:Chapter 3

00:18:16.554                             : en:Chapter 4

00:24:10.199                             : en:Chapter 5

00:28:54.107                             : en:Chapter 6

00:40:55.119                             : en:Chapter 7

00:44:08.145                             : en:Chapter 8







We have no issue with individuals posting or re-uploading our torrents on a platform we aren't on. However, if this is something you'd like to do, please do so in a 'as-is' format. We ask that you do not create a new torrent, include all descriptions you see above including the UTR logo, tags, notes and screenshots. If you'd like to become a permanent poster on a website we don't post to, feel free to get in contact with a UniTeam member.

Discussion

Comments 0

Post Your Comment

Files in this torrent

FILENAMESIZE
12 Monkeys S03E01 Mother 1080p Bluray BDrip x265 AAC 5.1 D0ct0rLew[UTR-HD].mkv3.6 GB
12 Monkeys S03E02 Guardians 1080p Bluray BDrip x265 AAC 5.1 D0ct0rLew[UTR-HD].mkv3.6 GB
12 Monkeys S03E03 Enemy 1080p Bluray BDrip x265 AAC 5.1 D0ct0rLew[UTR-HD].mkv3.5 GB
12 Monkeys S03E04 Brothers 1080p Bluray BDrip x265 AAC 5.1 D0ct0rLew[UTR-HD].mkv3.8 GB
12 Monkeys S03E05 Causality 1080p Bluray BDrip x265 AAC 5.1 D0ct0rLew[UTR-HD].mkv3.4 GB
12 Monkeys S03E06 Nature 1080p Bluray BDrip x265 AAC 5.1 D0ct0rLew[UTR-HD].mkv2.9 GB
12 Monkeys S03E07 Nurture 1080p Bluray BDrip x265 AAC 5.1 D0ct0rLew[UTR-HD].mkv3.1 GB
12 Monkeys S03E08 Masks 1080p Bluray BDrip x265 AAC 5.1 D0ct0rLew[UTR-HD].mkv3 GB
12 Monkeys S03E09 Thief 1080p Bluray BDrip x265 AAC 5.1 D0ct0rLew[UTR-HD].mkv2.8 GB
12 Monkeys S03E10 Witness 1080p Bluray BDrip x265 AAC 5.1 D0ct0rLew[UTR-HD].mkv3.5 GB

Alternative Torrents for 'Monkeys Season Bluray AAC DctrLewUTRHD'.

There are no alternative torrents found.