Classe 1999 (1990) H264 Ita Eng Sub Ita Eng-MIRCrew

Torrent Details

Classe 1999 (1990) H264 ita eng sub ita eng<span style=color:#fc9c6d>-MIRCrew</span>

NAME
Classe 1999 (1990) H264 ita eng sub ita eng-MIRCrew.torrent
CATEGORY
Movies
INFOHASH
2134be209490a3d432544833ab9ea9052b1c5d10
SIZE
1.1 GB in 3 files
ADDED
Uploaded on 03-09-2018 by our crawler pet called "Spidey".
SWARM
0 seeders & 0 peers
RATING
No votes yet.

Please login to vote for this torrent.


Description

Class of 1999 - Classe 1999 (1990).H264.italian.english.Ac3-sub.ita.eng-MIRCrew





NO FOUND ONLY ORIGINAL RELEASE







My release is always in double track audio italian and Original audio

for select it use VLC or dvd player home

not use wmp



Classe 1999 - Class of 1999 (1990)



















GENERE: Fantasy, Fantascienza

ANNO: 1990

REGIA: Mark L. Lester

PAESE: USA

DURATA: 99 Min







Bradley Gregg, Tracy Lind, Malcolm McDowell, Stacy Keach, Patrick Kilpatrick, John P. Ryan, Pam Grier







Los Angeles 1999. Una banda di teppisti prende il potere controllando le scuole e imponendosi con la violenza. Le autorità del dipartimento difesa educativa decidono allora, di usare dei robot travestiti da insegnanti, autorizzati a uccidere.







Robot teachers have been secretly placed in the schools where the students have run riot. The teachers do a good job of controlling the unruly youngsters, until they go too far and some ...






















General

Unique ID                                : 300032871263146418571006189007759066098 (0xE1B83AA6BB352613BF5F1AC27049C3F2)

Complete name                            : Classe 1999 (1990).H264.ita.eng.sub.ita.eng-MIRCrewClasse 1999 (1990).H264.ita.eng.sub.ita.eng-MIRCrew.mkv

Format                                   : Matroska

Format version                           : Version 2

File size                                : 1.13 GiB

Duration                                 : 1h 36mn

Overall bit rate                         : 1 676 Kbps

Movie name                               : MIRCrew

Encoded date                             : UTC 2018-05-09 14:13:43

Writing application                      : Lavf54.63.100

Writing library                          : Lavf54.63.100

COPYRIGHT                                : robbyrs



Video

ID                                       : 1

Format                                   : AVC

Format/Info                              : Advanced Video Codec

Format profile                           : [email protected]

Format settings, CABAC                   : Yes

Format settings, ReFrames                : 2 frames

Codec ID                                 : V_MPEG4/ISO/AVC

Duration                                 : 1h 36mn

Bit rate                                 : 1 300 Kbps

Width                                    : 720 pixels

Height                                   : 384 pixels

Display aspect ratio                     : 16:9

Frame rate mode                          : Variable

Frame rate                               : 23.976 fps

Color space                              : YUV

Chroma subsampling                       : 4:2:0

Bit depth                                : 8 bits

Scan type                                : Progressive

Bits/(Pixel*Frame)                       : 0.196

Stream size                              : 866 MiB (75%)

Title                                    : Class.of.1999.1990.Bluray.1080p.DIABLO

Writing library                          : x264 core 130 r2273

Encoding settings                        : cabac=1 / ref=2 / deblock=1:0:0 / analyse=0x1:0x131 / me=hex / subme=7 / psy=1 / psy_rd=1.00:0.00 / mixed_ref=0 / me_range=16 / chroma_me=1 / trellis=1 / 8x8dct=0 / cqm=0 / deadzone=21,11 / fast_pskip=1 / chroma_qp_offset=-2 / threads=3 / lookahead_threads=1 / sliced_threads=0 / nr=0 / decimate=1 / interlaced=0 / bluray_compat=0 / constrained_intra=0 / bframes=3 / b_pyramid=0 / b_adapt=1 / b_bias=0 / direct=3 / weightb=1 / open_gop=0 / weightp=2 / keyint=230 / keyint_min=23 / scenecut=40 / intra_refresh=0 / rc_lookahead=40 / rc=abr / mbtree=1 / bitrate=1300 / ratetol=1.0 / qcomp=0.60 / qpmin=10 / qpmax=69 / qpstep=4 / vbv_maxrate=24000 / vbv_bufsize=24000 / nal_hrd=none / ip_ratio=1.40 / aq=1:1.00

Language                                 : Italian

Default                                  : Yes

Forced                                   : No

DURATION                                 : 01:36:12.600000000

NUMBER_OF_FRAMES                         : 138404

NUMBER_OF_BYTES                          : 9464641466

_STATISTICS_WRITING_APP                  : mkvmerge v8.9.0 ('Father Daughter') 64bit

_STATISTICS_WRITING_DATE_UTC             : 2018-05-09 14:13:43

_STATISTICS_TAGS                         : BPS DURATION NUMBER_OF_FRAMES NUMBER_OF_BYTES



Audio #1

ID                                       : 2

Format                                   : AC-3

Format/Info                              : Audio Coding 3

Mode extension                           : CM (complete main)

Codec ID                                 : A_AC3

Duration                                 : 1h 36mn

Bit rate mode                            : Constant

Bit rate                                 : 192 Kbps

Channel(s)                               : 2 channels

Channel positions                        : Front: L R

Sampling rate                            : 48.0 KHz

Bit depth                                : 16 bits

Compression mode                         : Lossy

Delay relative to video                  : 1mn 5s

Stream size                              : 132 MiB (11%)

Title                                    : Ita Ac3

Language                                 : Italian

Default                                  : Yes

Forced                                   : No

DURATION                                 : 01:36:12.608000000

NUMBER_OF_FRAMES                         : 180394

NUMBER_OF_BYTES                          : 184723456

_STATISTICS_WRITING_APP                  : mkvmerge v8.9.0 ('Father Daughter') 64bit

_STATISTICS_WRITING_DATE_UTC             : 2018-05-09 14:13:43

_STATISTICS_TAGS                         : BPS DURATION NUMBER_OF_FRAMES NUMBER_OF_BYTES



Audio #2

ID                                       : 3

Format                                   : AC-3

Format/Info                              : Audio Coding 3

Mode extension                           : CM (complete main)

Codec ID                                 : A_AC3

Duration                                 : 1h 36mn

Bit rate mode                            : Constant

Bit rate                                 : 192 Kbps

Channel(s)                               : 2 channels

Channel positions                        : Front: L R

Sampling rate                            : 48.0 KHz

Bit depth                                : 16 bits

Compression mode                         : Lossy

Delay relative to video                  : 1mn 5s

Stream size                              : 132 MiB (11%)

Title                                    : Eng Ac3

Language                                 : English

Default                                  : No

Forced                                   : No

DURATION                                 : 01:36:12.608000000

NUMBER_OF_FRAMES                         : 180394

NUMBER_OF_BYTES                          : 323266048

_STATISTICS_WRITING_APP                  : mkvmerge v8.9.0 ('Father Daughter') 64bit

_STATISTICS_WRITING_DATE_UTC             : 2018-05-09 14:13:43

_STATISTICS_TAGS                         : BPS DURATION NUMBER_OF_FRAMES NUMBER_OF_BYTES



Menu

00:00:00.000                             : :00:00:00.000

00:10:02.060                             : :00:10:02.060

00:15:00.399                             : :00:15:00.399

00:25:35.075                             : :00:25:35.075

00:31:54.121                             : :00:31:54.121

00:39:31.911                             : :00:39:31.911

00:49:29.008                             : :00:49:29.008

00:56:26.341                             : :00:56:26.341

01:04:49.761                             : :01:04:49.761

01:12:37.853                             : :01:12:37.853

01:20:22.317                             : :01:20:22.317

01:31:39.494                             : :01:31:39.494

Discussion

Comments 0

Post Your Comment

Files in this torrent

FILENAMESIZE
Classe 1999 (1990).H264.ita.eng.sub.ita.eng-MIRCrew.eng.srt77.4 KB
Classe 1999 (1990).H264.ita.eng.sub.ita.eng-MIRCrew.ita.srt79 KB
Classe 1999 (1990).H264.ita.eng.sub.ita.eng-MIRCrew.mkv1.1 GB

Alternative Torrents for 'Classe eng sub eng'.

TORRENT NAMEADDEDSIZESEEDSPEERSHEALTH
10/14/202042.5 GB00
6/5/20193.6 GB00
9/9/20181.3 GB00
9/3/20181.1 GB00
8/21/20181.7 GB00
6/10/20189.3 GB00
9/29/2015504 MB00
9/29/2015507 MB00
9/15/20151.3 GB00
9/14/20151.4 GB00
3/29/20123.4 GB00
10/9/2011973 MB00
10/1/20114.3 GB00
8/25/201116.5 GB00
6/13/2011462 MB00