The Lion Guard S02E21-24 1080p WEB-DL AAC2.0 H 264-LAZY

Torrent Details

The Lion Guard S02E21-24 1080p WEB-DL AAC2.0 H 264-LAZY

NAME
The Lion Guard S02E21-24 1080p WEB-DL AAC2.0 H 264-LAZY.torrent
CATEGORY
Television
INFOHASH
cce161b936fcc9ed79b1243e8500e51252520ebd
SIZE
3.3 GB in 4 files
ADDED
Uploaded on 23-09-2018 by our crawler pet called "Spidey".
SWARM
1 seeders & 0 peers
RATING
No votes yet.

Please login to vote for this torrent.


Description

The Lion Guard:

Video
ID : 1
Format : AVC
Format/Info : Advanced Video Codec
Format profile : [email protected]
Format settings : CABAC / 4 Ref Frames
Format settings, CABAC : Yes
Format settings, RefFrames : 4 frames
Codec ID : V_MPEG4/ISO/AVC
Duration : 22 min 35 s
Bit rate : 5 106 kb/s
Width : 1 920 pixels
Height : 1 080 pixels
Display aspect ratio : 16:9
Frame rate mode : Constant
Frame rate : 23.976 (24000/1001) FPS
Color space : YUV
Chroma subsampling : 4:2:0
Bit depth : 8 bits
Scan type : Progressive
Bits/(Pixel*Frame) : 0.103
Stream size : 825 MiB (98%)
Language : English
Default : Yes
Forced : No
Color range : Limited
Color primaries : BT.709
Transfer characteristics : BT.709
Matrix coefficients : BT.709

Audio
ID : 2
Format : AAC LC
Format/Info : Advanced Audio Codec Low Complexity
Codec ID : A_AAC-2
Duration : 22 min 35 s
Bit rate : 126 kb/s
Channel(s) : 2 channels
Channel layout : L R
Sampling rate : 48.0 kHz
Frame rate : 46.875 FPS (1024 SPF)
Compression mode : Lossy
Delay relative to video : -42 ms
Stream size : 20.3 MiB (2%)
Language : English
Default : Yes
Forced : No

Text
ID : 3
Format : UTF-8
Codec ID : S_TEXT/UTF8
Codec ID/Info : UTF-8 Plain Text
Duration : 22 min 29 s
Bit rate : 106 b/s
Count of elements : 442
Stream size : 17.5 KiB (0%)
Language : English
Default : Yes
Forced : No

Screenshots:

Discussion

Comments 0

Post Your Comment

Files in this torrent

FILENAMESIZE
The.Lion.Guard.S02E21.Cave.of.Secrets.1080p.WEB-DL.AAC2.0.H.264-LAZY.mkv845.5 MB
The.Lion.Guard.S02E22.The.Zebra.Mastermind.1080p.WEB-DL.AAC2.0.H.264-LAZY.mkv849.7 MB
The.Lion.Guard.S02E23.The.Hyena.Resistance.1080p.WEB-DL.AAC2.0.H.264-LAZY.mkv850.3 MB
The.Lion.Guard.S02E24.The.Underground.Adventure.1080p.WEB-DL.AAC2.0.H.264-LAZY.mkv847.8 MB

Alternative Torrents for 'Lion Guard AAC. LAZY'.

There are no alternative torrents found.