Warning! Do NOT Download Without a VPN!
Your IP Address is .   Location is United States
Your Internet Provider and Government can track your download activities! Hide your IP ADDRESS with a VPN!
We strongly recommend using a VPN service to anonymize your torrent downloads. It's FREE!
START YOUR FREE TRIAL NOW!

18+ Amazon Hot Box 2018 UNCENSORED Movies HDRip X264 5 1 With Sample ☻rDX☻

Torrent Details

18+ Amazon Hot Box 2018 UNCENSORED Movies HDRip x264 5 1 with Sample ☻rDX☻

NAME
18+ Amazon Hot Box 2018 UNCENSORED Movies HDRip x264 5 1 with Sample ☻rDX☻.torrent
CATEGORY
Movies
INFOHASH
a2a861f5370505446a5cbf31a3287fb08252dbb5
SIZE
850 MB in 0 files
ADDED
Uploaded on 23-09-2018 by our crawler pet called "Spidey".
SWARM
0 seeders & 0 peers
RATING
No votes yet.

Please login to vote for this torrent.


Description

18+ Amazon Hot Box 2018 UNCENSORED Movies HDRip x264 5.1 with Sample ☻rDX☻====================================================

SCREEN SHOTS:



or

http://iphonehosting.eu/2018/9/hospital/1.html

File size : 840 MiB
Duration : 1 h 22 min
Overall bit rate mode : Constant
Overall bit rate : 1 419 kb/s
Movie name : 18+ Amazon Hot Box 2018 UNCENSORED Movies HDRip x264 5.1 ☻rDX☻

Video
ID : 2
Format : AVC
Format/Info : Advanced Video Codec
Format profile : [email protected]
Format settings, CABAC : Yes
Format settings, ReFrames : 2 frames
Format settings, GOP : M=1, N=12
Codec ID : V_MPEG4/ISO/AVC
Duration : 1 h 22 min
Bit rate mode : Constant
Bit rate : 1 228 kb/s
Width : 720 pixels
Height : 304 pixels
Display aspect ratio : 2.35:1
Frame rate mode : Constant
Frame rate : 23.976 FPS
Color space : YUV
Chroma subsampling : 4:2:0
Bit depth : 8 bits
Scan type : Progressive
Bits/(Pixel*Frame) : 0.234
Stream size : 710 MiB (84%)
Title : ☻rDX☻
Default : Yes
Forced : No

Audio
ID : 1
Format : AC-3
Format/Info : Audio Coding 3
Mode extension : CM (complete main)
Format settings, Endianness : Big
Codec ID : A_AC3
Duration : 1 h 22 min
Bit rate mode : Constant
Bit rate : 192 kb/s
Channel(s) : 6 channels
Channel positions : Front: L C R, Side: L R, LFE
Sampling rate : 48.0 kHz
Frame rate : 31.250 FPS (1536 spf)
Bit depth : 16 bits
Compression mode : Lossy
Stream size : 114 MiB (14%)
Title : ☻rDX☻
Default : Yes
Forced : No

https://www.imdb.com/title/tt8178992

Discussion

Comments 0

Post Your Comment

Torrent Files (Unavailable)

Please check back later to get a list of all files included in this torrent.

Alternative Torrents for 'Amazon Hot Box UNCENSORED Movies with Sample ☻rDX☻'.

TORRENT NAME ADDED SIZE SEEDS PEERS HEALTH
9/24/2018 707 MB 0 0
9/24/2018 863 MB 0 0