Shadowhunters The Mortal Instruments Season 2 (1080p BD X265 10bit Joy)

Torrent Details


Shadowhunters The Mortal Instruments Season 2  (1080p BD x265 10bit Joy)

NAME
Shadowhunters The Mortal Instruments Season 2 (1080p BD x265 10bit Joy).torrent
CATEGORY
Television
INFOHASH
3f5548c93d196bd8e568ee7ffc038338d95715cc
SIZE
8.4 GB in 24 files
ADDED
Uploaded on 29-09-2018 by our crawler pet called "Spidey".
SWARM
0 seeders & 0 peers
RATING
No votes yet.

Please login to vote for this torrent.


Description









Media Information

General

Format                                   : Matroska

Format version                           : Version 4 / Version 2

File size                                : 435 MiB

Duration                                 : 42 min 42 s

Overall bit rate                         : 1 423 kb/s

Encoded date                             : UTC 2018-09-21 10:52:48

Writing application                      : mkvmerge v24.0.0 ('Beyond The Pale') 64-bit

Writing library                          : libebml v1.3.6 + libmatroska v1.4.9

Writing frontend                         : StaxRip v1.8.2.0



Video

ID                                       : 1

Format                                   : HEVC

Format/Info                              : High Efficiency Video Coding

Format profile                           : Main [email protected]@Main

Codec ID                                 : V_MPEGH/ISO/HEVC

Duration                                 : 42 min 42 s

Bit rate                                 : 1 199 kb/s

Width                                    : 1 920 pixels

Height                                   : 1 080 pixels

Display aspect ratio                     : 16:9

Frame rate mode                          : Constant

Frame rate                               : 23.976 (24000/1001) FPS

Color space                              : YUV

Chroma subsampling                       : 4:2:0

Bit depth                                : 10 bits

Bits/(Pixel*Frame)                       : 0.024

Stream size                              : 366 MiB (84%)

Writing library                          : x265 2.8+19-bcdc610cf5f0:[Windows][MSVC 1914][64 bit] 10bit

Encoding settings                        : cpuid=1111039 / frame-threads=3 / numa-pools=8 / wpp / no-pmode / no-pme / no-psnr / ssim / log-level=2 / input-csp=1 / input-res=1920x1080 / interlace=0 / total-frames=61436 / level-idc=0 / high-tier=1 / uhd-bd=0 / ref=4 / no-allow-non-conformance / no-repeat-headers / annexb / no-aud / no-hrd / info / hash=0 / no-temporal-layers / open-gop / min-keyint=23 / keyint=250 / gop-lookahead=0 / bframes=4 / b-adapt=2 / b-pyramid / bframe-bias=0 / rc-lookahead=80 / lookahead-slices=4 / scenecut=40 / radl=0 / no-intra-refresh / ctu=64 / min-cu-size=8 / no-rect / no-amp / max-tu-size=32 / tu-inter-depth=1 / tu-intra-depth=1 / limit-tu=0 / rdoq-level=2 / dynamic-rd=0.00 / ssim-rd / signhide / no-tskip / nr-intra=0 / nr-inter=0 / no-constrained-intra / strong-intra-smoothing / max-merge=3 / limit-refs=3 / limit-modes / me=3 / subme=3 / merange=57 / temporal-mvp / weightp / no-weightb / no-analyze-src-pics / deblock=0:0 / sao / no-sao-non-deblock / rd=4 / no-early-skip / rskip / no-fast-intra / no-tskip-fast / no-cu-lossless / no-b-intra / no-splitrd-skip / rdpenalty=0 / psy-rd=0.00 / psy-rdoq=1.50 / no-rd-refine / no-lossless / cbqpoffs=0 / crqpoffs=0 / rc=abr / bitrate=1200 / qcomp=0.60 / qpstep=4 / stats-write=0 / stats-read=2 / cplxblur=20.0 / qblur=0.5 / vbv-maxrate=3600 / vbv-bufsize=6200 / vbv-init=0.9 / ipratio=1.40 / pbratio=1.30 / aq-mode=3 / aq-strength=0.80 / cutree / zone-count=0 / no-strict-cbr / qg-size=32 / no-rc-grain / qpmax=69 / qpmin=0 / no-const-vbv / sar=0 / overscan=0 / videoformat=5 / range=0 / colorprim=2 / transfer=2 / colormatrix=2 / chromaloc=0 / display-window=0 / max-cll=0,0 / min-luma=0 / max-luma=1023 / log2-max-poc-lsb=8 / vui-timing-info / vui-hrd-info / slices=1 / no-opt-qp-pps / no-opt-ref-list-length-pps / multi-pass-opt-rps / scenecut-bias=0.05 / no-opt-cu-delta-qp / no-aq-motion / no-hdr / no-hdr-opt / no-dhdr10-opt / no-idr-recovery-sei / analysis-reuse-level=10 / scale-factor=0 / refine-intra=0 / refine-inter=0 / refine-mv=0 / limit-sao / ctu-info=0 / no-lowpass-dct / refine-mv-type=0 / copy-pic=1 / max-ausize-factor=1.0 / no-dynamic-refine / no-single-sei

Default                                  : Yes

Forced                                   : No



Audio

ID                                       : 2

Format                                   : AAC

Format/Info                              : Advanced Audio Codec

Format profile                           : HE-AAC / LC

Codec ID                                 : A_AAC

Duration                                 : 42 min 41 s

Bit rate                                 : 222 kb/s

Channel(s)                               : 6 channels

Channel positions                        : Front: L C R, Side: L R, LFE

Sampling rate                            : 48.0 kHz / 24.0 kHz

Frame rate                               : 23.438 FPS (1024 spf)

Compression mode                         : Lossy

Delay relative to video                  : 31 ms

Stream size                              : 67.9 MiB (16%)

Language                                 : English

Default                                  : No

Forced                                   : No



Menu

00:00:00.000                             : en:00:00:00.000

00:01:16.118                             : en:00:01:16.118

00:11:50.710                             : en:00:11:50.710

00:20:47.746                             : en:00:20:47.746

00:31:17.292                             : en:00:31:17.292

00:41:59.892                             : en:00:41:59.892



Source Information

Release: Shadowhunters.The.Mortal.Instruments.S02.1080p.BluRay.x264-ROVERS[rartv]  (65.5 GB)







Note From UTR

We have no issue with individuals posting or re-uploading our torrents on a platform we aren't on. However, if this is something you'd like to do, please do so in a 'as-is' format. We ask that you do not create a new torrent, include all descriptions you see above including the UTR logo, tags, notes and screenshots. If you'd like to become a permanent poster on a website we don't post to, feel free to get in contact with a UniTeam member.

Discussion

Comments 0

Post Your Comment

Files in this torrent

FILENAMESIZE
Encoded by JoyBell (UTR).txt2.7 KB
folder.jpg85.1 KB
How to play HEVC (THIS FILE).txt3.4 KB
Ninite K-Lite Codecs Unattended Silent Installer and Updater.website561 B
Shadowhunters The Mortal Instruments S02E01 This Guilty Blood (1080p x265 10bit Joy).mkv434.6 MB
Shadowhunters The Mortal Instruments S02E02 A Door Into the Dark (1080p x265 10bit Joy).mkv436.3 MB
Shadowhunters The Mortal Instruments S02E03 Parabatai Lost (1080p x265 10bit Joy).mkv433 MB
Shadowhunters The Mortal Instruments S02E04 Day of Wrath (1080p x265 10bit Joy).mkv437.9 MB
Shadowhunters The Mortal Instruments S02E05 Dust and Shadows (1080p x265 10bit Joy).mkv436.9 MB
Shadowhunters The Mortal Instruments S02E06 Iron Sisters (1080p x265 10bit Joy).mkv439.3 MB
Shadowhunters The Mortal Instruments S02E07 How Are Thou Fallen (1080p x265 10bit Joy).mkv436.1 MB
Shadowhunters The Mortal Instruments S02E08 Love Is a Devil (1080p x265 10bit Joy).mkv436.1 MB
Shadowhunters The Mortal Instruments S02E09 Bound by Blood (1080p x265 10bit Joy).mkv434.7 MB
Shadowhunters The Mortal Instruments S02E10 By the Light of Dawn (1080p x265 10bit Joy).mkv435 MB
Shadowhunters The Mortal Instruments S02E11 Mea Maxima Culpa (1080p x265 10bit Joy).mkv436.6 MB
Shadowhunters The Mortal Instruments S02E12 You Are Not Your Own (1080p x265 10bit Joy).mkv433.2 MB
Shadowhunters The Mortal Instruments S02E13 Those of Demon Blood (1080p x265 10bit Joy).mkv425.5 MB
Shadowhunters The Mortal Instruments S02E14 The Fair Folk (1080p x265 10bit Joy).mkv424.3 MB
Shadowhunters The Mortal Instruments S02E15 A Problem of Memory (1080p x265 10bit Joy).mkv423.8 MB
Shadowhunters The Mortal Instruments S02E16 Day of Atonement (1080p x265 10bit Joy).mkv424.9 MB
Shadowhunters The Mortal Instruments S02E17 A Dark Reflection (1080p x265 10bit Joy).mkv422.6 MB
Shadowhunters The Mortal Instruments S02E18 Awake, Arise, or Be Forever Fallen (1080p x265 10bit Joy).mkv424.4 MB
Shadowhunters The Mortal Instruments S02E19 Hail and Farewell (1080p x265 10bit Joy).mkv417.6 MB
Shadowhunters The Mortal Instruments S02E20 Beside Still Water (1080p x265 10bit Joy).mkv419.9 MB

Alternative Torrents for 'Shadowhunters Mortal Instruments Season BD bit Joy'.

There are no alternative torrents found.