Warning! Do NOT Download Without a VPN!
Your IP Address is .   Location is United States
Your Internet Provider and Government can track your download activities! Hide your IP ADDRESS with a VPN!
We strongly recommend using a VPN service to anonymize your torrent downloads. It's FREE!
START YOUR FREE TRIAL NOW!

18+ Housewife 2018 UNCENSORED Movies 720p HDRip X264 AAC MSubs With Sample ☻rDX☻

Torrent Details

18+ Housewife 2018 UNCENSORED Movies 720p HDRip x264 AAC MSubs with Sample ☻rDX☻

NAME
18+ Housewife 2018 UNCENSORED Movies 720p HDRip x264 AAC MSubs with Sample ☻rDX☻.torrent
CATEGORY
Movies
INFOHASH
3170d33187b59039a293a7d83530632c7f5d2dc7
SIZE
782 MB in 0 files
ADDED
Uploaded on 04-10-2018 by our crawler pet called "Spidey".
SWARM
0 seeders & 0 peers
RATING
No votes yet.

Please login to vote for this torrent.


Description

18+ Housewife 2018 UNCENSORED Movies 720p HDRip x264 AAC MSubs with Sample ☻rDX☻====================================================

SCREEN SHOTS:



or

https://iphonehosting.eu/2018/9/a/homeloan/1.html

File size : 772 MiB
Duration : 1 h 22 min
Overall bit rate : 1 312 kb/s
Movie name : Housewife 2018 Movies 720p HDRip x264 AAC MSubs ☻rDX☻

Video
ID : 2
Format : AVC
Format/Info : Advanced Video Codec
Format profile : [email protected]
Format settings, CABAC : Yes
Format settings, ReFrames : 2 frames
Format settings, GOP : M=1, N=12
Codec ID : V_MPEG4/ISO/AVC
Duration : 1 h 22 min
Bit rate mode : Constant
Bit rate : 1 249 kb/s
Width : 1 280 pixels
Height : 582 pixels
Display aspect ratio : 2.2:1
Frame rate mode : Constant
Frame rate : 24.000 FPS
Color space : YUV
Chroma subsampling : 4:2:0
Bit depth : 8 bits
Scan type : Progressive
Bits/(Pixel*Frame) : 0.070
Stream size : 719 MiB (93%)
Title : ☻rDX☻
Default : Yes
Forced : No

Audio
ID : 1
Format : MPEG Audio
Format version : Version 1
Format profile : Layer 3
Mode : Joint stereo
Mode extension : MS Stereo
Codec ID : A_MPEG/L3
Codec ID/Hint : MP3
Duration : 1 h 22 min
Bit rate mode : Constant
Bit rate : 64.0 kb/s
Channel(s) : 2 channels
Sampling rate : 44.1 kHz
Compression mode : Lossy
Stream size : 37.7 MiB (5%)
Title : ☻rDX☻
Default : Yes
Forced : No

Text #1
ID : 3
Format : UTF-8
Codec ID : S_TEXT/UTF8
Codec ID/Info : UTF-8 Plain Text
Title : ☻rDX☻
Language : English
Default : Yes
Forced : No

Text #2
ID : 4
Format : UTF-8
Codec ID : S_TEXT/UTF8
Codec ID/Info : UTF-8 Plain Text
Title : ☻rDX☻
Language : Spanish
Default : No
Forced : No

Text #3
ID : 5
Format : UTF-8
Codec ID : S_TEXT/UTF8
Codec ID/Info : UTF-8 Plain Text
Title : ☻rDX☻
Language : French
Default : No
Forced : No

https://www.imdb.com/title/tt6464678/

Discussion

Comments 0

Post Your Comment

Torrent Files (Unavailable)

Please check back later to get a list of all files included in this torrent.

Alternative Torrents for 'Housewife UNCENSORED Movies AAC MSubs with Sample ☻rDX☻'.

There are no alternative torrents found.