Harry Potter And The Deathly Hallows Part 1 (2010) Open Matte (1080p AMZN WEB-DL X265 HEVC 10bit AAC 5.1 MONOLITH)

Torrent Details

Harry Potter and the Deathly Hallows Part 1 (2010) Open Matte (1080p AMZN WEB-DL x265 HEVC 10bit AAC 5.1 MONOLITH)

NAME
Harry Potter and the Deathly Hallows Part 1 (2010) Open Matte (1080p AMZN WEB-DL x265 HEVC 10bit AAC 5.1 MONOLITH).torrent
CATEGORY
Movies
INFOHASH
7f889e69be2762b65f48f6cec75fa38f2ad8465b
SIZE
3.1 GB in 1 file
ADDED
Uploaded on 13-10-2018 by our crawler pet called "Spidey".
SWARM
0 seeders & 0 peers
RATING
No votes yet.

Please login to vote for this torrent.


Description





Encode Screenshots (Click for full quality)









Media Information

General

Format                                   : Matroska

Format version                           : Version 4 / Version 2

File size                                : 3.11 GiB

Duration                                 : 2 h 26 min

Overall bit rate                         : 3 052 kb/s

Encoded date                             : UTC 2018-10-08 18:00:45

Writing application                      : mkvmerge v26.0.0 ('In The Game') 64-bit

Writing library                          : libebml v1.3.6 + libmatroska v1.4.9

Writing frontend                         : StaxRip v1.9.0.0



Video

ID                                       : 1

Format                                   : HEVC

Format/Info                              : High Efficiency Video Coding

Format profile                           : Main [email protected]@Main

Codec ID                                 : V_MPEGH/ISO/HEVC

Duration                                 : 2 h 26 min

Bit rate                                 : 2 611 kb/s

Width                                    : 1 920 pixels

Height                                   : 1 080 pixels

Display aspect ratio                     : 16:9

Frame rate mode                          : Constant

Frame rate                               : 23.976 (24000/1001) FPS

Color space                              : YUV

Chroma subsampling                       : 4:2:0

Bit depth                                : 10 bits

Bits/(Pixel*Frame)                       : 0.053

Stream size                              : 2.66 GiB (86%)

Title                                    : Encoded by MONOLITH

Writing library                          : x265 2.8+69-856f056d392e:[Windows][MSVC 1915][64 bit] 10bit

Encoding settings                        : cpuid=1111039 / frame-threads=3 / numa-pools=8 / wpp / no-pmode / no-pme / no-psnr / no-ssim / log-level=2 / input-csp=1 / input-res=1920x1080 / interlace=0 / total-frames=210061 / level-idc=0 / high-tier=1 / uhd-bd=0 / ref=4 / no-allow-non-conformance / no-repeat-headers / annexb / no-aud / no-hrd / info / hash=0 / no-temporal-layers / open-gop / min-keyint=23 / keyint=250 / gop-lookahead=0 / bframes=8 / b-adapt=2 / b-pyramid / bframe-bias=0 / rc-lookahead=80 / lookahead-slices=4 / scenecut=40 / radl=0 / no-intra-refresh / ctu=64 / min-cu-size=8 / rect / no-amp / max-tu-size=32 / tu-inter-depth=1 / tu-intra-depth=1 / limit-tu=0 / rdoq-level=2 / dynamic-rd=0.00 / no-ssim-rd / signhide / no-tskip / nr-intra=0 / nr-inter=0 / no-constrained-intra / no-strong-intra-smoothing / max-merge=3 / limit-refs=3 / limit-modes / me=3 / subme=5 / merange=57 / temporal-mvp / weightp / no-weightb / no-analyze-src-pics / deblock=-3:-3 / no-sao / no-sao-non-deblock / rd=4 / no-early-skip / rskip / no-fast-intra / no-tskip-fast / no-cu-lossless / no-b-intra / no-splitrd-skip / rdpenalty=0 / psy-rd=1.40 / psy-rdoq=1.50 / no-rd-refine / no-lossless / cbqpoffs=0 / crqpoffs=0 / rc=crf / crf=20.5 / qcomp=0.60 / qpstep=4 / stats-write=0 / stats-read=0 / ipratio=1.40 / pbratio=1.30 / aq-mode=3 / aq-strength=1.00 / cutree / zone-count=0 / no-strict-cbr / qg-size=32 / no-rc-grain / qpmax=69 / qpmin=0 / no-const-vbv / sar=0 / overscan=0 / videoformat=5 / range=0 / colorprim=2 / transfer=2 / colormatrix=2 / chromaloc=0 / display-window=0 / max-cll=0,0 / min-luma=0 / max-luma=1023 / log2-max-poc-lsb=8 / vui-timing-info / vui-hrd-info / slices=1 / no-opt-qp-pps / no-opt-ref-list-length-pps / no-multi-pass-opt-rps / scenecut-bias=0.05 / no-opt-cu-delta-qp / no-aq-motion / no-hdr / no-hdr-opt / no-dhdr10-opt / no-idr-recovery-sei / analysis-reuse-level=5 / scale-factor=0 / refine-intra=0 / refine-inter=0 / refine-mv=0 / no-limit-sao / ctu-info=0 / no-lowpass-dct / refine-mv-type=0 / copy-pic=1 / max-ausize-factor=1.0 / no-dynamic-refine / no-single-sei

Default                                  : Yes

Forced                                   : No



Audio

ID                                       : 2

Format                                   : AAC

Format/Info                              : Advanced Audio Codec

Format profile                           : LC

Codec ID                                 : A_AAC

Duration                                 : 2 h 26 min

Bit rate                                 : 439 kb/s

Channel(s)                               : 6 channels

Channel positions                        : Front: L C R, Side: L R, LFE

Sampling rate                            : 48.0 kHz

Frame rate                               : 46.875 FPS (1024 spf)

Compression mode                         : Lossy

Delay relative to video                  : 20 ms

Stream size                              : 458 MiB (14%)

Language                                 : English

Default                                  : No

Forced                                   : No



Subtitle

ID                                       : 3

Format                                   : UTF-8

Codec ID                                 : S_TEXT/UTF8

Codec ID/Info                            : UTF-8 Plain Text

Duration                                 : 2 h 12 min

Bit rate                                 : 53 b/s

Count of elements                        : 1986

Stream size                              : 51.7 KiB (0%)

Language                                 : English

Default                                  : No

Forced                                   : No



Source Information

Release : Harry.Potter.and.the.Deathly.Hallows.Part.1.2010.Open.Matte.1080p.AMZN.WEB-DL.DD+5.1.H.264-SiGMA







Note from QxR:

Whilst we are happy for our releases to be re-posted on a platform we aren't on, please do so in an 'as-is' format. We ask that you do not create a new torrent, include all descriptions you see above including the QxR logo, tags, notes and screenshots. If you'd like to become a permanent poster on a website we don't post to, feel free to get in contact with a QxR member.

Discussion

Comments 0

Post Your Comment

Files in this torrent

FILENAMESIZE
Harry Potter and the Deathly Hallows Part 1 (2010) Open Matte (1080p AMZN WEB-DL x265 MONOLITH).mkv3.1 GB

Alternative Torrents for 'Harry Potter and Deathly Hallows Part Open Matte HEVC bit AAC MONOLITH'.

There are no alternative torrents found.