12 Monkeys Season 4 Bluray BDRip 1080p X265 AAC 5.1 D0ct0rLew[UTR]

Torrent Details

12 Monkeys Season 4 Bluray BDRip 1080p x265 AAC 5.1 D0ct0rLew<span style=color:#fc9c6d>[UTR]</span>

NAME
12 Monkeys Season 4 Bluray BDRip 1080p x265 AAC 5.1 D0ct0rLew[UTR].torrent
CATEGORY
Television
INFOHASH
72d2afe36d6d9c7e32aa0d0e92720dc2edd3878c
SIZE
32.4 GB in 10 files
ADDED
Uploaded on 20-10-2018 by our crawler pet called "Spidey".
SWARM
0 seeders & 4 peers
RATING
No votes yet.

Please login to vote for this torrent.


Description



Screenshots
Source


Encode


Media Information

Unique ID : 216503809316995607557378177913659015510 (0xA2E11DF0069053B18DC0D60E827F4156)
Complete name : 12 Monkeys S04E01 The End BDRip 1080p x265 AAC 5.1 D0ct0rLew[UTR-HD].mkv
Format : Matroska
Format version : Version 4 / Version 2
File size : 3.22 GiB
Duration : 43 min 4 s
Overall bit rate : 10.7 Mb/s
Movie name : 12 Monkeys S04E01 The End 1080p BluRay REMUX AVC DTS-HD MA 5 1-EPSiLON
Encoded date : UTC 2018-10-13 05:02:13
Writing application : mkvmerge v17.0.0 ('Be Ur Friend') 64-bit
Writing library : libebml v1.3.5 + libmatroska v1.4.8

Video
ID : 2
Format : HEVC
Format/Info : High Efficiency Video Coding
Format profile : Main [email protected]@Main
Codec ID : V_MPEGH/ISO/HEVC
Duration : 43 min 4 s
Bit rate : 10.1 Mb/s
Width : 1 920 pixels
Height : 1 080 pixels
Display aspect ratio : 16:9
Frame rate mode : Constant
Frame rate : 23.976 (24000/1001) FPS
Color space : YUV
Chroma subsampling : 4:2:0
Bit depth : 10 bits
Bits/(Pixel*Frame) : 0.203
Stream size : 3.04 GiB (95%)
Writing library : x265 2.8+66-88ee12651e30:[Windows][GCC 8.2.0][64 bit] 10bit
Encoding settings : cpuid=1049583 / frame-threads=3 / numa-pools=8 / wpp / no-pmode / no-pme / no-psnr / no-ssim / log-level=2 / input-csp=1 / input-res=1920x1080 / interlace=0 / total-frames=61976 / level-idc=0 / high-tier=1 / uhd-bd=0 / ref=4 / no-allow-non-conformance / no-repeat-headers / annexb / no-aud / no-hrd / info / hash=0 / no-temporal-layers / open-gop / min-keyint=24 / keyint=240 / gop-lookahead=0 / bframes=8 / b-adapt=2 / b-pyramid / bframe-bias=0 / rc-lookahead=90 / lookahead-slices=4 / scenecut=40 / radl=0 / no-intra-refresh / ctu=64 / min-cu-size=8 / no-rect / no-amp / max-tu-size=32 / tu-inter-depth=2 / tu-intra-depth=2 / limit-tu=4 / rdoq-level=2 / dynamic-rd=0.00 / no-ssim-rd / signhide / no-tskip / nr-intra=0 / nr-inter=0 / no-constrained-intra / no-strong-intra-smoothing / max-merge=3 / limit-refs=2 / limit-modes / me=3 / subme=5 / merange=92 / temporal-mvp / weightp / weightb / no-analyze-src-pics / deblock=0:0 / no-sao / no-sao-non-deblock / rd=6 / no-early-skip / rskip / no-fast-intra / no-tskip-fast / no-cu-lossless / b-intra / no-splitrd-skip / rdpenalty=0 / psy-rd=1.20 / psy-rdoq=1.00 / no-rd-refine / no-lossless / cbqpoffs=-1 / crqpoffs=-1 / rc=crf / crf=18.1 / qcomp=0.60 / qpstep=4 / stats-write=0 / stats-read=0 / ipratio=1.40 / pbratio=1.30 / aq-mode=3 / aq-strength=1.40 / cutree / zone-count=0 / no-strict-cbr / qg-size=32 / no-rc-grain / qpmax=69 / qpmin=0 / no-const-vbv / sar=1 / overscan=0 / videoformat=5 / range=0 / colorprim=1 / transfer=1 / colormatrix=1 / chromaloc=0 / display-window=0 / max-cll=0,0 / min-luma=0 / max-luma=1023 / log2-max-poc-lsb=8 / vui-timing-info / vui-hrd-info / slices=1 / no-opt-qp-pps / no-opt-ref-list-length-pps / no-multi-pass-opt-rps / scenecut-bias=0.05 / no-opt-cu-delta-qp / no-aq-motion / no-hdr / no-hdr-opt / no-dhdr10-opt / no-idr-recovery-sei / analysis-reuse-level=5 / scale-factor=0 / refine-intra=0 / refine-inter=0 / refine-mv=0 / no-limit-sao / ctu-info=0 / no-lowpass-dct / refine-mv-type=0 / copy-pic=1 / max-ausize-factor=1.0 / no-dynamic-refine / no-single-sei
Default : Yes
Forced : No
Color range : Limited
Color primaries : BT.709
Transfer characteristics : BT.709
Matrix coefficients : BT.709

Audio
ID : 3
Format : AAC
Format/Info : Advanced Audio Codec
Format profile : LC
Codec ID : A_AAC
Duration : 43 min 4 s
Bit rate : 576 kb/s
Channel(s) : 6 channels
Channel positions : Front: L C R, Side: L R, LFE
Sampling rate : 48.0 kHz
Frame rate : 46.875 FPS (1024 spf)
Compression mode : Lossy
Delay relative to video : 9 ms
Stream size : 177 MiB (5%)
Language : English
Default : Yes
Forced : No

Text
ID : 1
Format : UTF-8
Codec ID : S_TEXT/UTF8
Codec ID/Info : UTF-8 Plain Text
Duration : 42 min 52 s
Bit rate : 49 b/s
Count of elements : 753
Stream size : 15.5 KiB (0%)
Language : English
Default : Yes
Forced : No

Menu
00:00:00.000 : en:Chapter 1
00:10:00.600 : en:Chapter 2
00:20:01.200 : en:Chapter 3
00:30:01.800 : en:Chapter 4
00:40:02.400 : en:Chapter 5
00:43:03.831 : en:Chapter 6


Source Media Information

Unique ID : 169330928459739708732931544718081188484 (0x7F63F3581B4C66373C15D0B25D0EE284)
Complete name : 12.Monkeys.S04E01.The.End.1080p.BluRay.REMUX.AVC.DTS-HD.MA.5.1-EPSiLON.mkv
Format : Matroska
Format version : Version 4 / Version 2
File size : 6.96 GiB
Duration : 43 min 5 s
Overall bit rate mode : Variable
Overall bit rate : 23.1 Mb/s
Encoded date : UTC 2018-09-18 19:44:09
Writing application : mkvmerge v26.0.0 ('In The Game') 64-bit
Writing library : libebml v1.3.6 + libmatroska v1.4.9

Video
ID : 1
Format : AVC
Format/Info : Advanced Video Codec
Format profile : [email protected]
Format settings, CABAC : Yes
Format settings, ReFrames : 2 frames
Format settings, GOP : M=1, N=5
Codec ID : V_MPEG4/ISO/AVC
Duration : 43 min 5 s
Bit rate mode : Variable
Bit rate : 19.1 Mb/s
Maximum bit rate : 38.2 Mb/s
Width : 1 920 pixels
Height : 1 080 pixels
Display aspect ratio : 16:9
Frame rate mode : Constant
Frame rate : 23.976 (24000/1001) FPS
Color space : YUV
Chroma subsampling : 4:2:0
Bit depth : 8 bits
Scan type : Progressive
Bits/(Pixel*Frame) : 0.383
Stream size : 5.74 GiB (82%)
Title : MPEG-4 AVC Video / 19059 kbps / 1080p / 23.976 fps / 16:9 / High Profile 4.1
Language : English
Default : Yes
Forced : No

Audio
ID : 2
Format : DTS
Format/Info : Digital Theater Systems
Format profile : MA / Core
Mode : 16
Format settings, Endianness : Big
Codec ID : A_DTS
Duration : 43 min 4 s
Bit rate mode : Variable / Constant
Bit rate : 4 069 kb/s / 1 509 kb/s
Channel(s) : 6 channels
Channel positions : Front: L C R, Side: L R, LFE
Sampling rate : 48.0 kHz
Frame rate : 93.750 FPS (512 spf)
Bit depth : 24 bits
Compression mode : Lossless / Lossy
Stream size : 1.22 GiB (18%)
Title : DTS-HD Master Audio / 5.1 / 48 kHz / 4067 kbps / 24-bit
Language : English
Default : Yes
Forced : No

Menu
00:00:00.000 : en:Chapter 1
00:10:00.600 : en:Chapter 2
00:20:01.200 : en:Chapter 3
00:30:01.800 : en:Chapter 4
00:40:02.400 : en:Chapter 5
00:43:03.831 : en:Chapter 6



We have no issue with individuals posting or re-uploading our torrents on a platform we aren't on. However, if this is something you'd like to do, please do so in a 'as-is' format. We ask that you do not create a new torrent, include all descriptions you see above including the UTR logo, tags, notes and screenshots. If you'd like to become a permanent poster on a website we don't post to, feel free to get in contact with a UniTeam member.

Discussion

Comments 0

Post Your Comment

Files in this torrent

FILENAMESIZE
12 Monkeys S04E01 The End BDRip 1080p x265 AAC 5.1 D0ct0rLew[UTR-HD].mkv3.2 GB
12 Monkeys S04E02 Ouroboros BDRip 1080p x265 AAC 5.1 D0ct0rLew[UTR-HD].mkv3.2 GB
12 Monkeys S04E03 45 RPM BDRip 1080p x265 AAC 5.1 D0ct0rLew[UTR-HD].mkv2.8 GB
12 Monkeys S04E04 Legacy BDRip 1080p x265 AAC 5.1 D0ct0rLew[UTR-HD].mkv3 GB
12 Monkeys S04E05 After BDRip 1080p x265 AAC 5.1 D0ct0rLew[UTR-HD].mkv2.4 GB
12 Monkeys S04E06 Die Glocke BDRip 1080p x265 AAC 5.1 D0ct0rLew[UTR-HD].mkv2.9 GB
12 Monkeys S04E07 Daughters BDRip 1080p x265 AAC 5.1 D0ct0rLew[UTR-HD].mkv2.5 GB
12 Monkeys S04E08 Demons BDRip 1080p x265 AAC 5.1 D0ct0rLew[UTR-HD].mkv3.4 GB
12 Monkeys S04E09 One Minute More BDRip 1080p x265 AAC 5.1 D0ct0rLew[UTR-HD].mkv2.6 GB
12 Monkeys S04E10E11 The Beginning BDRip 1080p x265 AAC 5.1 D0ct0rLew[UTR-HD].mkv6.3 GB

Alternative Torrents for 'Monkeys Season Bluray AAC DctrLew'.

There are no alternative torrents found.